<?xml version="1.0" standalone="no"?>
<!DOCTYPE svg PUBLIC "-//W3C//DTD SVG 1.1//EN" "http://www.w3.org/Graphics/SVG/1.1/DTD/svg11.dtd" >
<svg xmlns="http://www.w3.org/2000/svg" xmlns:xlink="http://www.w3.org/1999/xlink" version="1.1">
<metadata>
Created by FontForge 20170731 at Wed Oct 18 13:22:37 2023
 By Aleksey,,,
Digitised data (c) Monotype Imaging. All rights reserved.
</metadata>
<defs>
<font id="SackersGothicStd-Heavy" horiz-adv-x="796" >
  <font-face 
    font-family="Sackers Gothic Std Heavy"
    font-weight="850"
    font-stretch="normal"
    units-per-em="2048"
    panose-1="2 11 8 4 2 2 2 6 2 4"
    ascent="1556"
    descent="-492"
    x-height="1059"
    cap-height="1528"
    bbox="-426 -512 3551 2132"
    underline-thickness="102"
    underline-position="-307"
    unicode-range="U+0020-FB06"
  />
<missing-glyph horiz-adv-x="1024" 
d="M25 0v1362h972v-1362h-972zM180 1266l332 -498l330 498h-662zM123 1178v-992q0 -1 82.5 123t164.5 249l83 124zM901 1178l-332 -496l332 -498v994zM842 98l-330 496l-332 -496h662z" />
    <glyph glyph-name="fi" unicode="fi" horiz-adv-x="2004" 
d="M1712 0h-209v1061h209v-1061zM1253 848h-729v-195h385v-211h-385v-442h-209v1061h938v-213z" />
    <glyph glyph-name="fl" unicode="fl" horiz-adv-x="2404" 
d="M2353 0h-823v1061h219v-844h604v-217zM1253 848h-729v-195h385v-211h-385v-442h-209v1061h938v-213z" />
    <glyph glyph-name=".notdef" horiz-adv-x="1024" 
d="M25 0v1362h972v-1362h-972zM180 1266l332 -498l330 498h-662zM123 1178v-992q0 -1 82.5 123t164.5 249l83 124zM901 1178l-332 -496l332 -498v994zM842 98l-330 496l-332 -496h662z" />
    <glyph glyph-name=".null" horiz-adv-x="0" 
 />
    <glyph glyph-name="nonmarkingreturn" horiz-adv-x="682" 
 />
    <glyph glyph-name="space" unicode=" " horiz-adv-x="757" 
 />
    <glyph glyph-name="exclam" unicode="!" horiz-adv-x="720" 
d="M479 1532l-43 -1131h-145l-39 1131h227zM514 113q0 -62 -43 -106t-104 -44t-104.5 44.5t-43.5 105.5q0 62 43.5 105.5t104.5 43.5t104 -44t43 -105z" />
    <glyph glyph-name="quotedbl" unicode="&#x22;" horiz-adv-x="946" 
d="M776 1550l-49 -518h-149l-50 518h248zM418 1550l-49 -518h-150l-49 518h248z" />
    <glyph glyph-name="numbersign" unicode="#" horiz-adv-x="1402" 
d="M1460 983l-61 -162h-295l-96 -229h292l-61 -158h-293l-174 -420h-180l174 420h-311l-176 -420h-179l172 420h-290l61 158h291l98 229h-289l62 162h291l147 352h178l-145 -352h313l146 352h180l-146 -352h291zM926 821h-314l-96 -229h311z" />
    <glyph glyph-name="dollar" unicode="$" horiz-adv-x="1820" 
d="M1550 385q0 -80 -33 -149.5t-87.5 -119t-124.5 -85t-144 -53.5t-145 -19v-145h-205v141q-343 11 -604 276l139 154q221 -195 465 -211v424h-104q-71 0 -132 12t-113.5 39t-89.5 67.5t-58 100t-21 133.5q0 96 48 175t126.5 129t165 79.5t178.5 40.5v154h205v-154
q225 -25 438 -184l-115 -168q-91 57 -159 86.5t-164 48.5v-352q104 0 196.5 -23.5t169.5 -71.5t122.5 -131.5t45.5 -193.5zM811 805v358q-49 -6 -97.5 -20t-98 -38.5t-80.5 -65t-31 -91.5q0 -43 21.5 -72t65 -44t95.5 -21t125 -6zM1317 406q0 57 -29 96.5t-77.5 58t-95 26
t-99.5 7.5v-418q57 4 105.5 16.5t95 37t73.5 70t27 106.5z" />
    <glyph glyph-name="percent" unicode="%" horiz-adv-x="2541" 
d="M2404 389q0 -103 -43.5 -186.5t-116.5 -135t-164 -79t-190 -27.5q-128 0 -238 49t-181.5 147.5t-71.5 227.5q0 105 41 189t111.5 136t160.5 79.5t191 27.5q96 0 185.5 -29t160 -82t113 -135.5t42.5 -181.5zM1950 1470l-1131 -1552h-196l1128 1552h199zM1145 940
q0 -84 -28.5 -154.5t-78 -120.5t-115.5 -85t-140.5 -51.5t-153.5 -16.5q-128 0 -238.5 49t-182 147.5t-71.5 227.5q0 105 41 189t111.5 136t160.5 79.5t191 27.5q96 0 186 -28.5t161 -81.5t114 -135.5t43 -182.5zM2198 393q0 106 -87 173t-202 67q-119 0 -210 -68t-91 -178
q0 -72 44 -129t111 -86t142 -29q118 0 205.5 70t87.5 180zM936 944q0 106 -87 173t-202 67q-119 0 -210 -68t-91 -178q0 -72 44 -129t111 -86t142 -29q117 0 204 70t87 180h2z" />
    <glyph glyph-name="ampersand" unicode="&#x26;" horiz-adv-x="1781" 
d="M1645 0h-302l-96 104q-135 -78 -228 -106.5t-237 -28.5q-100 0 -201 27.5t-188.5 80t-142.5 139.5t-55 194q0 86 37 159t97 120.5t128.5 77t138.5 38.5q-43 43 -78 114.5t-35 155.5q0 143 109.5 228.5t306.5 85.5q123 0 242 -35.5t192 -81.5l-98 -195q-69 40 -161 74.5
t-169 34.5q-87 0 -133.5 -31t-46.5 -78q0 -34 16.5 -69t30.5 -52t39 -43l459 -499q65 69 178 233l184 -121q-81 -141 -211 -280zM1090 279l-336 356q-10 -3 -41.5 -11.5t-48 -13.5t-48 -15t-50 -19t-44 -22.5t-41 -28.5t-30.5 -33.5t-22 -41.5t-7 -49q0 -54 37.5 -95.5
t94.5 -63t113 -32.5t105 -11q96 0 160.5 17t157.5 63z" />
    <glyph glyph-name="quotesingle" unicode="'" horiz-adv-x="681" 
d="M475 1550l-49 -518h-150l-49 518h248z" />
    <glyph glyph-name="parenleft" unicode="(" horiz-adv-x="872" 
d="M762 1464q-63 -43 -128 -114t-123 -162.5t-95 -204.5t-37 -223q0 -103 36 -214.5t93 -204.5t120.5 -167.5t123.5 -120.5l-121 -104q-211 164 -341 378t-130 439q0 234 140 455t368 356z" />
    <glyph glyph-name="parenright" unicode=")" horiz-adv-x="872" 
d="M762 760q0 -234 -139 -455t-367 -356l-96 112q63 43 128.5 114.5t123.5 162.5t94.5 204.5t36.5 223.5q0 103 -36 214.5t-92 204t-119.5 166.5t-123.5 119l121 107q211 -164 340 -378t129 -439z" />
    <glyph glyph-name="asterisk" unicode="*" horiz-adv-x="1024" 
d="M864 1284l-209 -119l207 -118l-67 -121l-209 116v-237h-140v237l-215 -120l-71 122l211 121l-207 119l69 121l213 -117v242h140v-242l207 119z" />
    <glyph glyph-name="plus" unicode="+" horiz-adv-x="1820" 
d="M1397 383h-391v-385h-191v385h-391v190h391v385h191v-385h391v-190z" />
    <glyph glyph-name="comma" unicode="," 
d="M616 4q0 -62 -18 -117.5t-50.5 -99t-59 -71t-62.5 -56.5q-46 -31 -61 -31q-21 0 -35.5 14.5t-14.5 39.5q0 34 31 57q47 29 83 78t36 98q0 53 -41 53q-59 0 -94 39t-35 103q0 51 45.5 88t97.5 37q85 0 131.5 -70t46.5 -162z" />
    <glyph glyph-name="hyphen" unicode="-" horiz-adv-x="1249" 
d="M983 410h-717v243h717v-243z" />
    <glyph glyph-name="period" unicode="." horiz-adv-x="757" 
d="M522 113q0 -60 -41.5 -104t-101.5 -44t-101.5 44t-41.5 104t41.5 103.5t101.5 43.5t101.5 -43.5t41.5 -103.5z" />
    <glyph glyph-name="slash" unicode="/" horiz-adv-x="1290" 
d="M1186 1526l-856 -1585h-250l852 1585h254z" />
    <glyph glyph-name="zero" unicode="0" horiz-adv-x="1820" 
d="M1702 664q0 -183 -94.5 -347t-253.5 -256q-171 -100 -451 -100q-242 0 -399 78q-172 86 -277.5 256t-105.5 362q0 117 39 232q40 123 116 216t176.5 150t216.5 85t244 28q269 0 449 -104q156 -90 248 -254.5t92 -345.5zM1479 672q0 115 -47 208t-126 152t-179.5 90
t-211.5 31q-113 0 -215 -33t-182 -94t-127 -156.5t-47 -212.5q0 -113 48.5 -207t129 -153.5t181.5 -92t210 -32.5q90 0 173.5 21t155 63t124.5 101t83 140t30 175z" />
    <glyph glyph-name="one" unicode="1" horiz-adv-x="1251" 
d="M735 0h-217v1337h217v-1337z" />
    <glyph glyph-name="two" unicode="2" horiz-adv-x="1820" 
d="M1524 0h-1227q-6 40 -6 82q0 100 21 194t63.5 177.5t104 149.5t147 111t186.5 60q46 7 152.5 19t162.5 22q72 12 122 51.5t50 106.5q0 49 -39.5 86t-99.5 54.5t-114.5 25.5t-100.5 8q-152 0 -260.5 -31t-257.5 -108l-94 194q178 98 298.5 131t315.5 33q73 0 148.5 -12.5
t153 -41.5t137 -71.5t97.5 -109.5t38 -148q0 -83 -36 -154.5t-96 -120.5t-133.5 -80.5t-154.5 -43.5q-34 -5 -116 -14t-128 -17t-86 -21q-90 -28 -146 -97.5t-91 -213.5h989v-221z" />
    <glyph glyph-name="three" unicode="3" horiz-adv-x="1820" 
d="M1622 369q0 -69 -28 -127.5t-74.5 -99t-110.5 -72t-130.5 -50t-141 -30.5t-136 -16.5t-120.5 -4.5q-178 0 -346 43q-94 25 -169.5 62t-170.5 100l124 178q147 -95 277 -128.5t317 -33.5q56 0 126.5 8t157.5 26.5t144.5 59t57.5 97.5q0 40 -31.5 76t-80.5 59.5t-93.5 38.5
t-85.5 23q-88 16 -201 16q-53 0 -80 -2v213q217 0 334 41q148 56 148 143q0 46 -45 79.5t-113.5 49t-124.5 21.5t-102 6q-125 0 -226 -28t-239 -89l-103 184q173 92 290 123t306 31q59 0 121.5 -8t129.5 -25t125.5 -46.5t105.5 -69t74.5 -97t27.5 -125.5q0 -84 -42.5 -151.5
t-117.5 -130.5q246 -131 246 -344z" />
    <glyph glyph-name="four" unicode="4" horiz-adv-x="1820" 
d="M1675 328h-309v-328h-223v328h-920l-98 213l967 798h274v-792h309v-219zM1143 547v549l-660 -549h660z" />
    <glyph glyph-name="five" unicode="5" horiz-adv-x="1820" 
d="M1614 424q0 -81 -36 -152.5t-96.5 -123t-130.5 -87.5t-147 -57q-129 -37 -291 -37q-204 0 -357 42.5t-312 133.5l100 187q167 -74 291.5 -109t279.5 -35q100 0 209 25q43 11 84 27.5t84.5 42.5t70 64t26.5 81q0 62 -43 108t-112.5 69.5t-141.5 34.5t-146 11
q-97 0 -203.5 -24t-171 -48t-147.5 -61l-143 131v692h1226v-206h-1005v-347q129 45 226 63.5t224 18.5q87 0 174.5 -13.5t176.5 -46.5t157 -82t111 -127t43 -175z" />
    <glyph glyph-name="six" unicode="6" horiz-adv-x="1820" 
d="M1655 416q0 -67 -27 -127t-70.5 -105t-101.5 -82t-117.5 -61t-121.5 -39q-136 -31 -265 -31q-124 0 -240.5 28t-217.5 85.5t-177 138t-119.5 192.5t-43.5 242q0 163 71.5 299.5t189 225t265 137.5t303.5 49q167 0 300 -48t304 -151l-106 -188q-145 89 -248.5 125.5
t-249.5 36.5q-111 0 -212 -28.5t-184.5 -84t-138 -145t-67.5 -203.5q181 91 305.5 121.5t321.5 30.5q67 0 136.5 -9t143.5 -28.5t139 -53t116.5 -78t81.5 -109t30 -140.5zM1434 416q0 38 -28.5 71.5t-73.5 55.5t-86 36t-79 21q-66 14 -147 14q-270 0 -590 -153
q29 -73 89 -126.5t135.5 -82t152.5 -42t156 -13.5q86 0 188 20q41 9 84 24t91 39t78 60t30 76z" />
    <glyph glyph-name="seven" unicode="7" horiz-adv-x="1820" 
d="M1518 1194l-781 -1194h-266l731 1116h-917v221h1116z" />
    <glyph glyph-name="eight" unicode="8" horiz-adv-x="1820" 
d="M1634 373q0 -72 -26 -131.5t-69 -101t-103.5 -73.5t-124 -50.5t-136 -30.5t-133.5 -16.5t-122 -4.5t-123 4t-136.5 16t-140 30.5t-128.5 50.5t-108 73t-72.5 100.5t-27.5 131.5q0 76 39 149q34 66 89 110t137 85q-82 61 -125 131.5t-43 165.5q0 76 29 135.5t81.5 97.5
t113.5 64t136.5 38.5t137.5 17.5t130 5t131.5 -5.5t137.5 -19t134 -40t110.5 -65.5t79 -99.5t28.5 -136.5q0 -94 -42.5 -163t-125.5 -126q136 -60 188 -123q84 -100 84 -219zM1311 993q0 30 -18.5 54.5t-46.5 40.5t-69 27.5t-77.5 17.5t-81 9.5t-71.5 4t-56 0.5
q-42 0 -80.5 -2t-98 -11t-101.5 -24.5t-73.5 -46t-31.5 -72.5q0 -52 48 -89.5t121.5 -54.5t133.5 -23.5t111 -6.5q47 0 106 8t127 26t113 55t45 87zM1407 383q0 42 -33.5 79.5t-85.5 61t-99 38.5t-89 22q-84 16 -195 16q-80 0 -164 -12t-174 -49t-129 -93
q-9 -12 -18.5 -34.5t-9.5 -36.5q0 -47 41 -83t98.5 -55.5t131.5 -31.5t127 -15.5t97 -3.5q45 0 99.5 4t128.5 17t132.5 33t100 57.5t41.5 85.5z" />
    <glyph glyph-name="nine" unicode="9" horiz-adv-x="1820" 
d="M1669 684q0 -129 -46.5 -244t-127 -200t-185.5 -147.5t-225 -94t-243 -31.5q-139 0 -279 39q-98 27 -170 62.5t-164 99.5l109 192q131 -83 245.5 -124t250.5 -41q85 0 168 18t159 56t135.5 91.5t98.5 129.5t47 165q-186 -89 -310 -120t-319 -31q-130 0 -246 26
q-77 19 -144.5 51t-126.5 79t-93.5 115t-34.5 147t36 149t96 120t128 85t143 55q129 37 289 37q124 0 241.5 -27.5t220.5 -84t180.5 -136.5t122 -192.5t44.5 -243.5zM1393 877q-74 142 -215.5 205t-319.5 63q-96 0 -188 -21q-40 -9 -83 -24.5t-91.5 -39.5t-79.5 -59.5
t-31 -74.5q0 -35 25.5 -67t65.5 -54t77 -36.5t72 -23.5q87 -20 184 -20q150 0 288.5 39t295.5 113z" />
    <glyph glyph-name="colon" unicode=":" horiz-adv-x="757" 
d="M520 881q0 -60 -41.5 -103t-99.5 -43t-99.5 43t-41.5 101q0 59 41.5 101t99.5 42q59 0 100 -41t41 -100zM520 109q0 -59 -41.5 -101.5t-99.5 -42.5q-59 0 -100 41.5t-41 99.5q0 59 41.5 102.5t99.5 43.5t99.5 -42.5t41.5 -100.5z" />
    <glyph glyph-name="semicolon" unicode=";" 
d="M522 877q0 -59 -42.5 -101.5t-100.5 -42.5q-59 0 -100 40.5t-41 98.5q0 60 41 105t100 45q58 0 100.5 -43t42.5 -102zM555 4q0 -62 -18 -117.5t-50.5 -99t-59 -71t-62.5 -56.5q-47 -31 -62 -31q-21 0 -35 14.5t-14 39.5q0 34 31 57q47 29 82.5 78t35.5 98q0 53 -41 53
q-59 0 -94 39t-35 103q0 51 41.5 88t92.5 37q86 0 137 -71t51 -161z" />
    <glyph glyph-name="less" unicode="&#x3c;" horiz-adv-x="1820" 
d="M1315 29l-809 354v178l809 354v-202l-576 -240l576 -242v-202z" />
    <glyph glyph-name="equal" unicode="=" horiz-adv-x="1820" 
d="M1397 567h-973v191h973v-191zM1397 199h-973v190h973v-190z" />
    <glyph glyph-name="greater" unicode="&#x3e;" horiz-adv-x="1820" 
d="M1315 383l-809 -354v202l575 242l-575 240v202l809 -354v-178z" />
    <glyph glyph-name="question" unicode="?" horiz-adv-x="1214" 
d="M1055 1169q0 -117 -59 -207.5t-165 -170.5l-206 -156q-50 -40 -50 -117v-133h-231v152q0 93 17.5 138.5t66.5 82.5l217 168q71 54 111.5 111t40.5 130q0 195 -351 195q-176 0 -327 -43v211q147 41 403 41q87 0 160.5 -11t144 -39t119.5 -72.5t79 -115.5t30 -164zM606 113
q0 -62 -43 -106t-104 -44t-104.5 44.5t-43.5 105.5q0 62 43.5 105.5t104.5 43.5t103 -44t42 -105h2z" />
    <glyph glyph-name="at" unicode="@" horiz-adv-x="2195" 
d="M2044 754q0 -99 -36.5 -189t-95 -151.5t-131.5 -98t-145 -36.5q-200 0 -288 96q-94 -94 -297 -94q-61 0 -119 12.5t-112 40t-87 79.5t-33 122q0 53 15.5 94t47 68t70 44.5t93.5 26.5t108 12.5t123 3.5h129q0 27 -12 54q-25 63 -164 63q-87 0 -130.5 -16t-49.5 -54h-191
q13 66 48 111.5t89 70t115 34.5t139 10q185 0 271 -74t86 -227v-172q0 -140 147 -140q91 0 155 91t64 221q0 117 -64 219t-170.5 171t-246 108.5t-289.5 39.5q-112 0 -218.5 -27.5t-197.5 -81.5t-160 -127.5t-108 -172t-39 -209.5q0 -145 61 -266t164 -201t237 -124t280 -44
q220 0 338 86l121 -154q-172 -108 -457 -108q-179 0 -346.5 54t-299.5 152t-212 250t-80 334q0 197 71 353t196.5 255.5t292.5 152t364 52.5q157 0 297.5 -27.5t261 -85t208.5 -140.5t137.5 -201t49.5 -260zM1282 621h-111h-81q-42 0 -82 -3q-62 -5 -87.5 -24t-25.5 -64
q0 -41 43 -62.5t115 -21.5q226 0 229 175z" />
    <glyph glyph-name="A" unicode="A" horiz-adv-x="1705" 
d="M1659 0h-250l-219 498h-686l-228 -498h-241l694 1526h246zM1090 723l-242 532l-242 -532h484z" />
    <glyph glyph-name="B" unicode="B" horiz-adv-x="1857" 
d="M1706 418q0 -178 -131 -297q-37 -34 -74.5 -57.5t-70 -36t-77.5 -18.5t-78.5 -7.5t-92.5 -1.5h-877v1528h877q199 0 324.5 -111t125.5 -307q0 -96 -32.5 -164.5t-104.5 -136.5q211 -165 211 -391zM1409 1108q0 199 -227 199h-656v-410h656q104 0 165.5 54t61.5 157z
M1485 446q0 64 -25.5 109.5t-70.5 69.5t-95.5 34.5t-111.5 10.5h-656v-445h678q73 0 124 13t93 55q64 64 64 153z" />
    <glyph glyph-name="C" unicode="C" horiz-adv-x="1896" 
d="M1769 274q-264 -311 -716 -311q-176 0 -333 57.5t-273.5 160.5t-185 255.5t-68.5 331.5q0 170 63.5 319t172.5 253.5t259.5 164.5t319.5 60q207 0 394.5 -82t342.5 -232l-166 -141q-133 111 -268.5 171t-290.5 60q-168 0 -306 -71t-220 -204t-82 -302q0 -135 54 -246
t145 -182t208.5 -109.5t247.5 -38.5q174 0 299.5 58t255.5 188z" />
    <glyph glyph-name="D" unicode="D" horiz-adv-x="1896" 
d="M1767 770q0 -154 -60.5 -304t-166.5 -263q-102 -110 -216.5 -156.5t-270.5 -46.5h-744v1528h738q153 0 287.5 -60.5t229 -163t149 -241.5t54.5 -293zM1542 754q0 150 -56.5 273.5t-170.5 200.5t-266 77h-521v-1082h525q144 0 257 73.5t172.5 194t59.5 263.5z" />
    <glyph glyph-name="E" unicode="E" horiz-adv-x="1744" 
d="M1606 0h-1297v1528h1258v-225h-1035v-400h521v-221h-521v-459h1074v-223z" />
    <glyph glyph-name="F" unicode="F" horiz-adv-x="1705" 
d="M1565 1307h-1030v-424h626v-228h-626v-655h-222v1528h1252v-221z" />
    <glyph glyph-name="G" unicode="G" horiz-adv-x="1857" 
d="M1724 428q0 -82 -36.5 -155t-97 -126t-132 -90t-149.5 -59q-123 -35 -273 -35q-229 0 -420 101.5t-304 286.5t-113 415q0 173 67 322.5t181 253t268 162.5t325 59q205 0 356 -68t294 -211l-154 -158q-105 115 -217 165t-266 50q-173 0 -316.5 -68t-232 -201.5
t-88.5 -307.5q0 -132 51 -242t137.5 -182.5t201.5 -113t243 -40.5q91 0 176 21q45 11 89.5 30t89.5 47.5t73 70t28 87.5v172h-485v222h704v-408z" />
    <glyph glyph-name="H" unicode="H" horiz-adv-x="1972" 
d="M1661 0h-223v684h-899v-684h-222v1528h222v-619h899v619h223v-1528z" />
    <glyph glyph-name="I" unicode="I" 
d="M512 0h-219v1528h219v-1528z" />
    <glyph glyph-name="J" unicode="J" horiz-adv-x="1669" 
d="M1350 571q0 -118 -17 -189.5t-76 -156.5q-179 -260 -563 -260q-293 0 -463 144q-63 54 -104 115.5t-86 154.5l201 100q77 -166 171 -228.5t275 -62.5q277 0 391 170q27 40 38 90t11 154v926h222v-957z" />
    <glyph glyph-name="K" unicode="K" horiz-adv-x="1705" 
d="M1661 0h-258l-473 831l-400 -423v-408h-221v1528h221v-799l754 799h309l-506 -531z" />
    <glyph glyph-name="L" unicode="L" horiz-adv-x="1517" 
d="M1473 0h-1154v1528h224v-1305h930v-223z" />
    <glyph glyph-name="M" unicode="M" horiz-adv-x="2123" 
d="M1819 0h-224v1069l-542 -944l-529 944v-1069h-217v1528h219l527 -953l544 953h222v-1528z" />
    <glyph glyph-name="N" unicode="N" horiz-adv-x="1972" 
d="M1671 0h-221l-922 1163v-1163h-219v1528h217l920 -1168v1168h225v-1528z" />
    <glyph glyph-name="O" unicode="O" horiz-adv-x="2048" 
d="M1845 762q0 -165 -67 -314.5t-178.5 -255t-262.5 -167.5t-315 -62q-228 0 -416.5 109t-296.5 298t-108 416q0 164 67.5 311.5t179.5 251t263 164t313 60.5q167 0 319 -63t262 -170.5t175 -258.5t65 -319zM1624 774q0 164 -82.5 296.5t-220 205t-299.5 72.5
q-169 0 -306 -74.5t-216.5 -209.5t-79.5 -304q0 -121 49.5 -228t132.5 -182t193.5 -118.5t228.5 -43.5q121 0 231.5 45.5t191.5 123t129 186.5t48 231z" />
    <glyph glyph-name="P" unicode="P" horiz-adv-x="1781" 
d="M1647 1092q0 -202 -122.5 -322.5t-324.5 -120.5h-663v-649h-224v1528h887q204 0 325.5 -116t121.5 -320zM1425 1092q0 112 -56 162.5t-169 50.5h-663v-431h663q109 0 167 54.5t58 163.5z" />
    <glyph glyph-name="Q" unicode="Q" horiz-adv-x="2048" 
d="M1851 762q0 -195 -78 -346t-235 -279l191 -194l-189 -131l-203 208q-162 -55 -311 -55q-167 0 -318 61.5t-261 167.5t-175 255.5t-65 316.5q0 166 66.5 316.5t178.5 257.5t263.5 170t316.5 63q135 0 260 -40t226 -114t176 -173t116 -224t41 -260zM1628 774
q0 164 -81.5 296.5t-218.5 205t-300 72.5q-164 0 -302 -73t-220 -206.5t-82 -298.5q0 -168 84.5 -303t225 -209t306.5 -74q58 0 123 19l-80 82l195 118l102 -102q248 187 248 473z" />
    <glyph glyph-name="R" unicode="R" horiz-adv-x="1820" 
d="M1688 1077q0 -171 -92.5 -283.5t-260.5 -152.5l318 -641h-252l-307 633h-570v-633h-223v1528h905q215 0 348.5 -119t133.5 -332zM1466 1090q0 113 -71 165t-189 52h-682v-451h682q119 0 189.5 58.5t70.5 175.5z" />
    <glyph glyph-name="S" unicode="S" horiz-adv-x="1705" 
d="M1581 446q0 -107 -47 -192t-121 -138t-172 -88t-192.5 -49t-190.5 -14q-236 0 -418.5 74t-345.5 240l156 149q144 -133 289 -185.5t350 -52.5q56 0 115 7t124.5 26.5t116 49t84 79.5t33.5 113q0 108 -102 174q-57 36 -128 46t-253 13l-230 4q-91 2 -171.5 27t-144.5 72
t-101 122.5t-37 170.5q0 81 31.5 153t86 125.5t120.5 93.5t142 64q124 39 265 39q358 0 635 -209l-125 -178q-139 85 -241 122t-241 37q-50 0 -104.5 -6t-117.5 -23t-112 -43.5t-81.5 -71t-32.5 -101.5q0 -176 258 -176h227q79 0 125.5 -2t109 -10.5t117 -28.5t109.5 -52
q103 -61 159 -161t56 -220z" />
    <glyph glyph-name="T" unicode="T" horiz-adv-x="1554" 
d="M1423 1305h-538v-1305h-217v1305h-545v223h1300v-223z" />
    <glyph glyph-name="U" unicode="U" horiz-adv-x="1972" 
d="M1659 580q0 -132 -20.5 -217t-88.5 -173q-47 -62 -115.5 -106.5t-147.5 -68.5t-156.5 -35t-159.5 -11q-176 0 -332 61.5t-244 190.5q-54 79 -70 159.5t-16 199.5v948h221v-948q0 -96 16 -158.5t70 -116.5q112 -112 390 -112q110 0 187 18.5t134.5 62t85 119.5t27.5 187
v948h219v-948z" />
    <glyph glyph-name="V" unicode="V" horiz-adv-x="1705" 
d="M1659 1528l-682 -1528h-264l-672 1528h242l563 -1278l567 1278h246z" />
    <glyph glyph-name="W" unicode="W" horiz-adv-x="2086" 
d="M2036 1528l-457 -1528h-229l-312 1081l-301 -1081h-241l-457 1528h229l344 -1133l314 1133h217l321 -1133l338 1133h234z" />
    <glyph glyph-name="X" unicode="X" horiz-adv-x="1630" 
d="M1573 0h-283l-469 643l-485 -643h-285l627 829l-504 699h270l377 -510l383 510h277l-518 -699z" />
    <glyph glyph-name="Y" unicode="Y" horiz-adv-x="1554" 
d="M1522 1528l-631 -866v-662h-221v662l-621 866h268l467 -647l461 647h277z" />
    <glyph glyph-name="Z" unicode="Z" horiz-adv-x="1441" 
d="M1389 0h-1272l-72 154l975 1149h-889v225h1165l80 -152l-979 -1149h992v-227z" />
    <glyph glyph-name="bracketleft" unicode="[" horiz-adv-x="872" 
d="M649 0h-364v1532h364v-164h-164v-1208h164v-160z" />
    <glyph glyph-name="backslash" unicode="\" horiz-adv-x="1290" 
d="M1186 -59h-250l-856 1585h254z" />
    <glyph glyph-name="bracketright" unicode="]" horiz-adv-x="872" 
d="M608 0h-364v160h164v1208h-164v164h364v-1532z" />
    <glyph glyph-name="asciicircum" unicode="^" horiz-adv-x="1820" 
d="M1384 721h-217l-256 461l-258 -461h-217l383 647h182z" />
    <glyph glyph-name="underscore" unicode="_" horiz-adv-x="1024" 
d="M1024 -256h-1024v100h1024v-100z" />
    <glyph glyph-name="grave" unicode="`" 
d="M600 1174h-188l-215 249h239z" />
    <glyph glyph-name="a" unicode="a" horiz-adv-x="1402" 
d="M1348 0h-242l-107 223h-620l-107 -223h-241l514 1061h282zM893 434l-205 420l-205 -420h410z" />
    <glyph glyph-name="b" unicode="b" horiz-adv-x="1517" 
d="M1317 332q0 -162 -105 -247t-272 -85h-692v1061h692q82 0 136 -14t102 -60q86 -83 86 -213q0 -66 -14.5 -104.5t-57.5 -89.5q67 -54 96 -110t29 -138zM1047 760q0 50 -27.5 69t-79.5 19h-481v-182h481q59 0 83 18.5t24 75.5zM1106 336q0 68 -45.5 93.5t-120.5 25.5h-481
v-242h481q76 0 121 26.5t45 96.5z" />
    <glyph glyph-name="c" unicode="c" horiz-adv-x="1517" 
d="M1391 131q-155 -98 -261.5 -132t-279.5 -34q-101 0 -196 22t-178 67.5t-145 110t-98 155.5t-36 198q0 172 88 305.5t231 203t313 69.5q111 0 204.5 -25t166.5 -66t172 -114l-125 -186q-101 88 -199.5 131t-222.5 43q-103 0 -196.5 -41.5t-156 -124t-62.5 -187.5
q0 -108 65 -189.5t160.5 -120t200.5 -38.5q142 0 234 32.5t224 117.5z" />
    <glyph glyph-name="d" unicode="d" horiz-adv-x="1554" 
d="M1421 539q0 -247 -146 -393t-390 -146h-576v1061h576q247 0 391.5 -136t144.5 -386zM1206 535q0 154 -83.5 233.5t-237.5 79.5h-355v-635h355q152 0 236.5 85t84.5 237z" />
    <glyph glyph-name="e" unicode="e" horiz-adv-x="1402" 
d="M1278 0h-963v1061h938v-213h-729v-195h385v-211h-385v-229h754v-213z" />
    <glyph glyph-name="f" unicode="f" horiz-adv-x="1366" 
d="M1253 848h-729v-195h385v-211h-385v-442h-209v1061h938v-213z" />
    <glyph glyph-name="g" unicode="g" horiz-adv-x="1478" 
d="M1298 158q-127 -103 -243.5 -148t-272.5 -45q-127 0 -242.5 38t-205 108t-142.5 178.5t-53 240.5q0 130 52.5 238.5t141.5 179t204 109.5t241 39q280 0 500 -135l-125 -213q-193 133 -385 133q-80 0 -153 -23t-132 -65.5t-94 -110t-35 -150.5t33.5 -151t90 -110.5
t128.5 -65.5t152 -23q96 0 162.5 21.5t160.5 75.5v127h-260v198h477v-446z" />
    <glyph glyph-name="h" unicode="h" horiz-adv-x="1630" 
d="M1313 0h-209v444h-578v-444h-209v1061h209v-402h578v402h209v-1061z" />
    <glyph glyph-name="i" unicode="i" 
d="M524 0h-209v1061h209v-1061z" />
    <glyph glyph-name="j" unicode="j" horiz-adv-x="1327" 
d="M1010 397q0 -139 -68 -238.5t-177 -146.5t-245 -47q-163 0 -275.5 69t-195.5 214l180 123q58 -99 128 -145t180 -46q111 0 187.5 55t76.5 162v664h209v-664z" />
    <glyph glyph-name="k" unicode="k" horiz-adv-x="1366" 
d="M1317 0h-256l-332 524l-203 -196v-328h-211v1061h211v-438l445 438h286l-372 -377z" />
    <glyph glyph-name="l" unicode="l" horiz-adv-x="1175" 
d="M1124 0h-823v1061h219v-844h604v-217z" />
    <glyph glyph-name="m" unicode="m" horiz-adv-x="1781" 
d="M1477 0h-211v676l-371 -533l-375 533v-676h-211v1061h213l373 -533l371 533h211v-1061z" />
    <glyph glyph-name="n" unicode="n" horiz-adv-x="1630" 
d="M1323 0h-211l-590 719v-719h-211v1061h211l590 -717v717h211v-1061z" />
    <glyph glyph-name="o" unicode="o" horiz-adv-x="1705" 
d="M1503 541q0 -105 -35.5 -197.5t-98 -161t-145.5 -118t-179 -74.5t-197 -25q-126 0 -242.5 39.5t-207 110.5t-145 180.5t-54.5 239.5t55 238t147 177.5t208 107.5t241 38q101 0 196 -22t178 -68t145 -111t98 -156t36 -198zM1288 539q0 86 -38.5 153t-102.5 106.5t-139 60
t-156 20.5q-65 0 -127 -13t-119 -40.5t-99.5 -67.5t-67.5 -99t-25 -129t25.5 -128.5t68.5 -98t100 -67.5t119 -41t127 -13q80 0 156.5 24t139 67.5t100.5 113t38 152.5z" />
    <glyph glyph-name="p" unicode="p" horiz-adv-x="1441" 
d="M1323 725q0 -144 -94 -246q-57 -63 -120 -79.5t-169 -16.5h-428v-383h-209v1061h674q79 0 128 -14.5t103 -61.5q55 -47 85 -116t30 -144zM1108 727q0 37 -13.5 62.5t-39 37.5t-52.5 16.5t-63 4.5h-428v-254h428q85 0 126.5 26.5t41.5 106.5z" />
    <glyph glyph-name="q" unicode="q" horiz-adv-x="1669" 
d="M1487 528q0 -136 -59 -240t-173 -196l136 -151l-203 -84l-135 139q-127 -31 -228 -31q-99 0 -193 24.5t-175 73.5t-142 116t-96 158.5t-35 194.5q0 106 37.5 198.5t102 158.5t150 113.5t182 70.5t196.5 23q126 0 240.5 -39.5t202.5 -110.5t140 -179.5t52 -238.5z
M1272 535q0 86 -38.5 154t-102 108.5t-139.5 61t-158 20.5t-158 -22t-138 -64.5t-99.5 -111.5t-37.5 -155q0 -100 58 -180.5t147.5 -122t188.5 -41.5q43 0 86 6l-54 66l203 86l74 -80q82 55 125 120t43 155z" />
    <glyph glyph-name="r" unicode="r" horiz-adv-x="1478" 
d="M1386 0h-268l-268 434h-338v-434h-215v1061h725q65 0 110.5 -12t92.5 -45q62 -44 96.5 -114.5t34.5 -148.5q0 -117 -62 -194t-176 -113zM1141 748q0 34 -13 55t-38.5 30.5t-48 12t-56.5 2.5h-473v-203h510q50 0 84.5 27t34.5 76z" />
    <glyph glyph-name="s" unicode="s" horiz-adv-x="1402" 
d="M1272 319q0 -85 -35.5 -150t-90.5 -103t-131 -62t-146.5 -32.5t-147.5 -8.5q-198 0 -315.5 37.5t-280.5 151.5l98 190q157 -99 270 -131.5t298 -32.5q40 0 81.5 7t85 22.5t71.5 47.5t28 75q0 97 -160 106q-59 3 -167 4.5t-150 3.5q-76 3 -143.5 23.5t-123 59t-88 101
t-32.5 142.5q0 77 32 136t81 94t117.5 57.5t132.5 30.5t134 8q142 0 259 -33.5t253 -106.5l-96 -188q-222 117 -467 117q-34 0 -69.5 -5.5t-74.5 -17.5t-64 -38t-25 -62q0 -30 19.5 -51.5t52 -32t60 -14.5t56.5 -5q46 -2 138 -3t138 -3q67 -3 124 -14.5t109 -37t89 -62.5
t58.5 -93t21.5 -127z" />
    <glyph glyph-name="t" unicode="t" horiz-adv-x="1251" 
d="M1126 850h-399v-850h-211v850h-385v211h995v-211z" />
    <glyph glyph-name="u" unicode="u" horiz-adv-x="1630" 
d="M1325 416q0 -95 -15 -158t-65 -125q-71 -88 -191 -128t-253 -40q-231 0 -365.5 112.5t-134.5 338.5v645h211v-645q0 -63 17 -107.5t42.5 -69.5t70.5 -38.5t86 -17t103 -3.5q124 0 205 47q45 25 62.5 64.5t17.5 124.5v645h209v-645z" />
    <glyph glyph-name="v" unicode="v" horiz-adv-x="1366" 
d="M1325 1061l-510 -1061h-272l-502 1061h238l399 -846l407 846h240z" />
    <glyph glyph-name="w" unicode="w" horiz-adv-x="1705" 
d="M1673 1061l-332 -1061h-284l-205 778l-205 -778h-280l-326 1061h227l234 -778l217 778h274l211 -778l244 778h225z" />
    <glyph glyph-name="x" unicode="x" horiz-adv-x="1366" 
d="M1313 0h-287l-340 406l-346 -406h-289l490 573l-410 486h289l266 -324l281 324h280l-418 -486z" />
    <glyph glyph-name="y" unicode="y" horiz-adv-x="1175" 
d="M1145 1061l-438 -633v-428h-209v428l-447 633h266l283 -418l291 418h254z" />
    <glyph glyph-name="z" unicode="z" horiz-adv-x="1099" 
d="M1067 0h-961l-73 137l657 711h-584v213h867l94 -143l-661 -705h661v-213z" />
    <glyph glyph-name="braceleft" unicode="{" horiz-adv-x="872" 
d="M682 -33q-201 0 -280.5 62t-79.5 213v313q0 48 -5.5 74.5t-23.5 46.5t-52 27.5t-91 7.5v120q105 0 137 29t32 125v299q0 150 81 212.5t282 62.5v-136q-103 0 -138.5 -27t-35.5 -108v-272q0 -193 -123 -248q65 -29 93 -87.5t28 -154.5v-288q0 -77 37.5 -106.5t138.5 -29.5
v-135z" />
    <glyph glyph-name="bar" unicode="|" horiz-adv-x="761" 
d="M475 -512h-188v2048h188v-2048z" />
    <glyph glyph-name="braceright" unicode="}" horiz-adv-x="872" 
d="M743 711q-57 0 -90.5 -7t-51.5 -27.5t-23 -47t-5 -74.5v-313q0 -150 -80.5 -212.5t-281.5 -62.5v135q100 0 137 29.5t37 106.5v288q0 96 29 154.5t94 87.5q-64 28 -92.5 89.5t-28.5 158.5v272q0 81 -36 108t-140 27v136q201 0 280.5 -62t79.5 -213v-299q0 -96 33.5 -125
t138.5 -29v-120z" />
    <glyph glyph-name="asciitilde" unicode="~" horiz-adv-x="1820" 
d="M1452 479q-34 -37 -57.5 -59.5t-64 -53t-86 -46t-95.5 -15.5q-64 0 -133 20t-118.5 43.5t-106.5 43.5t-99 20q-72 0 -184 -125l-123 148q59 70 142.5 123t154.5 53q58 0 122.5 -19t113 -41.5t109 -41.5t110.5 -19q61 0 106 31.5t86 85.5z" />
    <glyph glyph-name="uni00A0" unicode="&#xa0;" horiz-adv-x="757" 
 />
    <glyph glyph-name="exclamdown" unicode="&#xa1;" horiz-adv-x="720" 
d="M512 1419q0 -62 -43 -105.5t-104 -43.5t-104.5 44.5t-43.5 104.5q0 62 43.5 106t104.5 44t104 -44.5t43 -105.5zM477 0h-227l43 1130h145z" />
    <glyph glyph-name="cent" unicode="&#xa2;" horiz-adv-x="1820" 
d="M1542 256q-133 -84 -225 -118t-234 -44v-190h-202v194q-146 17 -266 86.5t-193.5 189t-73.5 267.5q0 152 71.5 275t191 196.5t270.5 95.5v193h202v-193q117 -11 220 -59.5t221 -132.5l-125 -187q-143 126 -316 156v-670q114 14 186.5 42t176.5 94zM881 319v668
q-124 -9 -222 -111.5t-98 -226.5q0 -129 93 -217t227 -113z" />
    <glyph glyph-name="sterling" unicode="&#xa3;" horiz-adv-x="1820" 
d="M1528 948h-215q-1 76 -42 129t-101.5 75t-133.5 22q-141 0 -211.5 -76.5t-70.5 -220.5v-113h352v-203h-352v-342h721v-219h-1129v219h184v342h-184v203h184v168q0 91 27.5 165t75.5 124.5t115.5 84.5t144 49t164.5 15q87 0 169 -23.5t150.5 -68t110 -118.5t41.5 -167v-45
z" />
    <glyph glyph-name="currency" unicode="&#xa4;" horiz-adv-x="1542" 
d="M1249 356q-15 -16 -44.5 -46.5t-45.5 -45.5q-67 70 -137 137q-104 -77 -240 -77q-135 0 -237 77q-47 -45 -139 -137q-43 46 -89 92q121 115 140 133q-78 111 -78 236q0 135 78 236q-118 113 -140 135q45 46 89 92q92 -92 139 -137q111 77 237 77q61 0 125 -19.5
t113 -57.5q94 90 139 137q16 -16 45.5 -46.5t44.5 -45.5q-45 -45 -139 -135q78 -108 78 -236q0 -126 -78 -236q21 -19 44.5 -41.5t51.5 -49.5t43 -42zM1061 727q0 119 -84 196.5t-193 77.5q-118 0 -198 -81t-80 -193q0 -113 81.5 -195.5t194.5 -82.5q115 0 197 82t82 196z
" />
    <glyph glyph-name="yen" unicode="&#xa5;" horiz-adv-x="1554" 
d="M1485 1335l-408 -508h269v-137h-375l-92 -115v-38h467v-138h-465v-399h-213v399h-469v138h469v38l-90 115h-379v137h272l-401 508h252l454 -567l447 567h262z" />
    <glyph glyph-name="brokenbar" unicode="&#xa6;" horiz-adv-x="761" 
d="M475 666h-188v716h188v-716zM475 -358h-188v716h188v-716z" />
    <glyph glyph-name="section" unicode="&#xa7;" horiz-adv-x="1251" 
d="M1104 713q0 -108 -113 -195q96 -88 96 -223q0 -162 -133.5 -253t-355.5 -91q-121 0 -247 42t-216 130l78 174q192 -170 387 -170q133 0 211 40t78 126q0 51 -40.5 83t-113.5 60l-313 119q-254 96 -254 315q0 57 32 113t76 92q-69 75 -69 187q0 67 26.5 121.5t69 89.5
t98.5 58.5t112 33.5t112 10q115 0 237 -43t205 -125l-76 -174q-70 74 -171.5 118t-190.5 44q-108 0 -163.5 -28.5t-55.5 -98.5q0 -44 37 -80t94 -58l313 -116q109 -40 179.5 -117.5t70.5 -183.5zM899 705q0 47 -30 76.5t-93 56.5l-348 141q-61 -43 -61 -102
q0 -53 41.5 -88.5t115.5 -63.5l314 -119q28 17 44.5 44t16.5 55z" />
    <glyph glyph-name="dieresis" unicode="&#xa8;" 
d="M678 1200h-189v199h189v-199zM307 1200h-188v199h188v-199z" />
    <glyph glyph-name="copyright" unicode="&#xa9;" horiz-adv-x="1935" 
d="M1765 762q0 -162 -63 -309.5t-169.5 -254.5t-254.5 -170t-311 -63q-162 0 -309.5 63t-254.5 170t-170 254.5t-63 309.5t63 309.5t170 254.5t254.5 170t309.5 63q163 0 311 -63t254.5 -170t169.5 -254.5t63 -309.5zM1606 762q0 174 -85 320.5t-232 231.5t-320 85
q-174 0 -321 -85t-232.5 -232t-85.5 -320q0 -129 51 -247t136.5 -204t203.5 -137t248 -51t248 50.5t203 136.5t135.5 204t50.5 248zM1384 535q-187 -183 -389 -183q-126 0 -232.5 50.5t-172.5 147t-66 218.5q0 181 134 299.5t325 118.5q114 0 219.5 -54t171.5 -131
l-123 -112q-44 56 -119.5 93.5t-152.5 37.5q-114 0 -196.5 -72.5t-82.5 -177.5q0 -111 87 -181.5t212 -70.5q135 0 267 144z" />
    <glyph glyph-name="ordfeminine" unicode="&#xaa;" horiz-adv-x="1024" 
d="M860 623h-162v77q-35 -50 -91.5 -80t-164.5 -30q-87 0 -157 25.5t-116 86t-46 148.5q0 109 59 160t174 67q69 10 187 10l155 3q0 42 -15.5 70.5t-45 43t-61.5 20t-74 5.5q-147 0 -178 -84h-162q13 55 40.5 96t62 65t82 38t93 19t101.5 5q162 0 240.5 -68.5t78.5 -224.5
v-452zM705 948h-226q-95 0 -144.5 -20.5t-49.5 -77.5q0 -59 51 -87t119 -28q118 0 181 54.5t69 158.5z" />
    <glyph glyph-name="guillemotleft" unicode="&#xab;" horiz-adv-x="1214" 
d="M1083 137h-204l-275 402l275 395h204l-235 -395zM608 137h-205l-274 402l274 395h205l-235 -395z" />
    <glyph glyph-name="logicalnot" unicode="&#xac;" horiz-adv-x="1820" 
d="M1397 199h-189v368h-784v191h973v-559z" />
    <glyph glyph-name="uni00AD" unicode="&#xad;" horiz-adv-x="1249" 
d="M983 410h-717v243h717v-243z" />
    <glyph glyph-name="registered" unicode="&#xae;" horiz-adv-x="1935" 
d="M1765 762q0 -162 -63 -309.5t-169.5 -254.5t-254 -170t-309.5 -63q-163 0 -311 63t-255 170t-170 254.5t-63 309.5t63 309.5t170 254.5t254.5 170t309.5 63q163 0 311 -63t254.5 -170t169.5 -254.5t63 -309.5zM1606 762q0 174 -85 320.5t-232 231.5t-320 85
q-174 0 -321 -85t-232.5 -232t-85.5 -320q0 -129 50.5 -247t136 -204t203.5 -137t247 -51q130 0 248.5 50.5t204 136.5t136 204t50.5 248zM1374 375h-192l-166 299h-221v-299h-166v807h401q93 0 135.5 -8t89.5 -39q52 -34 79.5 -90t27.5 -117q0 -80 -44.5 -148t-119.5 -92z
M1196 926q0 88 -117 88h-284v-172h270q76 0 98 14q33 26 33 70z" />
    <glyph glyph-name="macron" unicode="&#xaf;" 
d="M676 1241h-555v133h555v-133z" />
    <glyph glyph-name="degree" unicode="&#xb0;" 
d="M651 1321q0 -106 -74 -180t-178 -74q-106 0 -180 74t-74 178q0 106 74 180t178 74q106 0 180 -74t74 -178zM516 1319q0 48 -35 83.5t-84 35.5t-82.5 -35.5t-33.5 -83.5q0 -49 34 -83t82 -34t83.5 34t35.5 83z" />
    <glyph glyph-name="plusminus" unicode="&#xb1;" horiz-adv-x="1820" 
d="M1397 449h-391v-328h-191v328h-391v190h391v319h191v-319h391v-190zM1397 -193h-973v191h973v-191z" />
    <glyph glyph-name="two.superior" unicode="&#xb2;" horiz-adv-x="1062" 
d="M940 1104q0 -69 -47.5 -121t-110.5 -76t-127 -26q-57 -2 -101 -6.5t-93.5 -15.5t-82 -28.5t-54 -47.5t-21.5 -70h619v-176h-818q-1 16 -3.5 49t-2.5 49q0 151 97 253t254 126l90 12l90 12q21 3 35 6.5t33.5 10.5t29.5 20t10 31q0 33 -38 54t-77 26.5t-75 5.5
q-102 0 -171.5 -17.5t-176.5 -68.5l-76 160q131 63 216 82.5t224 19.5q55 0 105 -7t101 -26t88 -47.5t60 -76t23 -107.5z" />
    <glyph glyph-name="three.superior" unicode="&#xb3;" horiz-adv-x="1062" 
d="M1004 776q0 -46 -19 -83.5t-49.5 -63.5t-73.5 -45.5t-86 -31t-92 -18.5t-87 -9.5t-75 -2.5q-131 0 -242 26t-219 91l97 145q88 -50 172 -69t188 -19q279 0 279 86q0 73 -117 90q-80 13 -229 13v162q43 0 116 6q176 13 176 75q0 29 -35.5 48t-72 24.5t-68.5 5.5
q-94 0 -162.5 -16t-173.5 -60l-86 156q126 61 208 79.5t214 18.5q60 0 121 -11.5t122 -37t99.5 -75.5t38.5 -117q0 -53 -23.5 -90t-66.5 -70q146 -78 146 -207z" />
    <glyph glyph-name="acute" unicode="&#xb4;" 
d="M582 1423l-217 -249h-187l164 249h240z" />
    <glyph glyph-name="mu" unicode="&#xb5;" horiz-adv-x="1630" 
d="M1325 0h-199v111q-32 -43 -124.5 -94.5t-192.5 -51.5t-186 43t-111 94v-415h-211v1374h211v-645q0 -63 18 -108t44.5 -69t69.5 -38t80 -17.5t89 -3.5q69 0 121 11t95 36.5t65 73t22 115.5v645h209v-1061z" />
    <glyph glyph-name="paragraph" unicode="&#xb6;" horiz-adv-x="1705" 
d="M1530 0h-211v1331h-166v-1331h-217v621h-225q-59 0 -94 1.5t-88 8t-98.5 23.5t-86.5 44q-94 62 -141 161.5t-47 211.5q0 103 39 198t118 161q70 59 146.5 78.5t183.5 19.5h887v-1528zM936 825v506h-293q-135 0 -199.5 -60.5t-64.5 -195.5q0 -66 24.5 -123.5t71.5 -83.5
q40 -24 92 -33.5t144 -9.5h225z" />
    <glyph glyph-name="periodcentered" unicode="&#xb7;" horiz-adv-x="757" 
d="M522 727q0 -60 -41.5 -103.5t-101.5 -43.5t-101.5 43.5t-41.5 103.5t41.5 103.5t101.5 43.5t101.5 -43.5t41.5 -103.5z" />
    <glyph glyph-name="cedilla" unicode="&#xb8;" 
d="M655 -305q0 -56 -27 -96t-72 -60.5t-92 -29.5t-99 -9q-69 0 -114 13t-110 49l52 112q41 -23 73.5 -32t102.5 -9q41 0 73.5 17t32.5 53q0 33 -29.5 49.5t-64.5 16.5q-30 0 -92 -17l-43 55l155 213h166l-121 -161q98 -2 153.5 -37.5t55.5 -126.5z" />
    <glyph glyph-name="one.superior" unicode="&#xb9;" horiz-adv-x="1062" 
d="M629 547h-195v803h195v-803z" />
    <glyph glyph-name="ordmasculine" unicode="&#xba;" horiz-adv-x="1024" 
d="M963 975q0 -92 -37.5 -166.5t-100.5 -121t-141.5 -71t-163.5 -24.5q-87 0 -166 26t-141 74t-98.5 124t-36.5 169q0 89 37.5 163t99.5 121t139.5 73t159.5 26q86 0 165.5 -26t143 -74.5t102 -124.5t38.5 -168zM793 975q0 106 -82.5 170.5t-192.5 64.5q-109 0 -189.5 -62.5
t-80.5 -166.5q0 -105 81.5 -168t192.5 -63t191 60t80 165z" />
    <glyph glyph-name="guillemotright" unicode="&#xbb;" horiz-adv-x="1214" 
d="M1083 539l-274 -402h-205l236 402l-236 395h205zM610 539l-276 -402h-205l238 402l-238 395h205z" />
    <glyph glyph-name="onequarter" unicode="&#xbc;" horiz-adv-x="2541" 
d="M2230 197h-184v-197h-191v197h-540l-66 149l584 498h211v-482h186v-165zM1731 1470l-1129 -1552h-196l1126 1552h199zM547 547h-195v803h195v-803zM1855 362v285l-354 -285h354z" />
    <glyph glyph-name="onehalf" unicode="&#xbd;" horiz-adv-x="2541" 
d="M2245 567q0 -69 -47.5 -121t-110.5 -76t-127 -26q-57 -2 -101 -6.5t-93.5 -15.5t-82 -28.5t-54 -47.5t-21.5 -70h618v-176h-817q-1 16 -3.5 49t-2.5 49q0 151 97 253t253 126q29 4 89.5 12.5t90.5 12.5q22 3 35.5 6t33.5 10t30 20t10 31q0 25 -21.5 43.5t-54.5 27
t-61.5 12t-53.5 3.5q-102 0 -171.5 -17.5t-176.5 -68.5l-76 160q131 63 216.5 82.5t224.5 19.5q55 0 105 -7t101 -26t88 -47.5t60 -76t23 -107.5zM1710 1470l-1128 -1552h-197l1126 1552h199zM516 547h-194v803h194v-803z" />
    <glyph glyph-name="threequarters" unicode="&#xbe;" horiz-adv-x="2541" 
d="M2415 197h-185v-197h-190v197h-541l-65 149l583 498h211v-482h187v-165zM1997 1470l-1129 -1552h-196l1126 1552h199zM1034 776q0 -63 -36 -111t-88.5 -74t-122.5 -42.5t-125 -21.5t-109 -5q-131 0 -242 26t-219 91l96 145q87 -50 172 -69t189 -19q278 0 278 86
q0 73 -116 90q-80 13 -230 13v162q43 0 117 6q176 13 176 75q0 29 -35.5 48t-72 24.5t-68.5 5.5q-94 0 -162.5 -16t-173.5 -60l-86 156q126 61 208 79.5t214 18.5q60 0 121 -11.5t122 -37t99.5 -75.5t38.5 -117q0 -53 -23.5 -90t-66.5 -70q145 -78 145 -207zM2040 362v285
l-354 -285h354z" />
    <glyph glyph-name="questiondown" unicode="&#xbf;" horiz-adv-x="1214" 
d="M891 1423q0 -62 -43.5 -105.5t-104.5 -43.5t-104 44t-43 105q0 62 43 106t104 44t104.5 -44.5t43.5 -105.5zM1085 4q-147 -41 -403 -41q-87 0 -160.5 11t-144 39t-119.5 72.5t-78.5 115.5t-29.5 164q0 117 58.5 207.5t164.5 170.5l207 156q49 39 49 117v133h231v-152
q0 -93 -17.5 -138.5t-66.5 -82.5l-217 -168q-70 -54 -110.5 -111t-40.5 -130q0 -195 350 -195q176 0 327 43v-211z" />
    <glyph glyph-name="Agrave" unicode="&#xc0;" horiz-adv-x="1705" 
d="M1030 1665h-188l-215 250h239zM1659 0h-250l-219 498h-686l-228 -498h-241l694 1526h246zM1090 723l-242 532l-242 -532h484z" />
    <glyph glyph-name="Aacute" unicode="&#xc1;" horiz-adv-x="1705" 
d="M1073 1915l-217 -250h-186l164 250h239zM1659 0h-250l-219 498h-686l-228 -498h-241l694 1526h246zM1090 723l-242 532l-242 -532h484z" />
    <glyph glyph-name="Acircumflex" unicode="&#xc2;" horiz-adv-x="1705" 
d="M1151 1665h-182l-123 147l-111 -147h-180l180 254h232zM1659 0h-250l-219 498h-686l-228 -498h-241l694 1526h246zM1090 723l-242 532l-242 -532h484z" />
    <glyph glyph-name="Atilde" unicode="&#xc3;" horiz-adv-x="1705" 
d="M1171 1896q-3 -50 -10.5 -85.5t-25.5 -68.5t-52.5 -50t-85.5 -17q-82 0 -182.5 27t-120.5 27q-55 0 -55 -64h-154q0 109 42 165t149 56q50 0 141.5 -23.5t134.5 -23.5q33 0 50.5 12.5t17.5 44.5h151zM1659 0h-250l-219 498h-686l-228 -498h-241l694 1526h246zM1090 723
l-242 532l-242 -532h484z" />
    <glyph glyph-name="Adieresis" unicode="&#xc4;" horiz-adv-x="1705" 
d="M1122 1692h-188v198h188v-198zM752 1692h-189v198h189v-198zM1659 0h-250l-219 498h-686l-228 -498h-241l694 1526h246zM1090 723l-242 532l-242 -532h484z" />
    <glyph glyph-name="Aring" unicode="&#xc5;" horiz-adv-x="1705" 
d="M1077 1898q0 -96 -68.5 -164.5t-164.5 -68.5q-97 0 -166.5 68.5t-69.5 164.5t69 165t165 69q97 0 166 -68.5t69 -165.5zM1659 0h-250l-219 498h-686l-228 -498h-241l694 1526h246zM944 1898q0 42 -29.5 72.5t-70.5 30.5q-43 0 -74 -30t-31 -73q0 -41 30.5 -70.5
t72.5 -29.5q41 0 70.5 29.5t29.5 70.5h2zM1090 723l-242 532l-242 -532h484z" />
    <glyph glyph-name="AE" unicode="&#xc6;" horiz-adv-x="2656" 
d="M2517 0h-1298v502h-574l-369 -502h-241l1149 1528h1292v-225h-1034v-400h522v-221h-522v-459h1075v-223zM1219 727v569l-412 -569h412z" />
    <glyph glyph-name="Ccedilla" unicode="&#xc7;" horiz-adv-x="1896" 
d="M1769 274q-72 -87 -128.5 -130.5t-157.5 -90.5q-89 -40 -161 -58.5t-173 -27.5l-80 -108q207 0 207 -156q0 -60 -26 -102t-71.5 -63t-93.5 -29.5t-104 -8.5q-66 0 -112 13.5t-105 48.5l51 112q69 -43 172 -43q39 0 75 17t36 53q0 33 -29.5 50.5t-64.5 17.5q-42 0 -95 -17
l-39 55l115 158q-171 17 -315 78t-250.5 161t-166.5 244.5t-60 319.5q0 168 63 316.5t171 253.5t257 166t317 61q417 0 744 -314l-166 -141q-136 112 -269.5 171.5t-289.5 59.5q-167 0 -305 -71t-220.5 -203.5t-82.5 -300.5q0 -136 53.5 -247t144.5 -182.5t208.5 -110
t248.5 -38.5q139 0 272 48q81 29 142.5 74.5t140.5 123.5z" />
    <glyph glyph-name="Egrave" unicode="&#xc8;" horiz-adv-x="1744" 
d="M1133 1665h-189l-215 250h240zM1606 0h-1297v1528h1258v-225h-1035v-400h521v-221h-521v-459h1074v-223z" />
    <glyph glyph-name="Eacute" unicode="&#xc9;" horiz-adv-x="1744" 
d="M1196 1915l-217 -250h-186l163 250h240zM1606 0h-1297v1528h1258v-225h-1035v-400h521v-221h-521v-459h1074v-223z" />
    <glyph glyph-name="Ecircumflex" unicode="&#xca;" horiz-adv-x="1744" 
d="M1249 1665h-182l-123 147l-110 -147h-181l181 254h231zM1606 0h-1297v1528h1258v-225h-1035v-400h521v-221h-521v-459h1074v-223z" />
    <glyph glyph-name="Edieresis" unicode="&#xcb;" horiz-adv-x="1744" 
d="M1210 1692h-188v198h188v-198zM840 1692h-189v198h189v-198zM1606 0h-1297v1528h1258v-225h-1035v-400h521v-221h-521v-459h1074v-223z" />
    <glyph glyph-name="Igrave" unicode="&#xcc;" 
d="M580 1665h-189l-215 250h240zM512 0h-219v1528h219v-1528z" />
    <glyph glyph-name="Iacute" unicode="&#xcd;" 
d="M623 1915l-217 -250h-187l164 250h240zM512 0h-219v1528h219v-1528z" />
    <glyph glyph-name="Icircumflex" unicode="&#xce;" 
d="M698 1665h-182l-123 147l-110 -147h-181l181 254h231zM512 0h-219v1528h219v-1528z" />
    <glyph glyph-name="Idieresis" unicode="&#xcf;" 
d="M678 1692h-189v198h189v-198zM307 1692h-188v198h188v-198zM512 0h-219v1528h219v-1528z" />
    <glyph glyph-name="Eth" unicode="&#xd0;" horiz-adv-x="1896" 
d="M1767 770q0 -154 -60.5 -304t-166.5 -263q-102 -110 -216.5 -156.5t-270.5 -46.5h-744v684h-268v221h268v623h744q192 0 329 -76q116 -65 204 -175t134.5 -241.5t46.5 -265.5zM1542 754q0 150 -55.5 273.5t-168.5 200.5t-265 77h-525v-400h455v-221h-455v-461h525
q144 0 257 73.5t172.5 194t59.5 263.5z" />
    <glyph glyph-name="Ntilde" unicode="&#xd1;" horiz-adv-x="1972" 
d="M1321 1896q-3 -50 -10.5 -85.5t-25.5 -68.5t-52.5 -50t-85.5 -17q-82 0 -182.5 27t-120.5 27q-56 0 -56 -64h-153q0 109 42 165t148 56q50 0 142 -23.5t135 -23.5q33 0 50 12.5t17 44.5h152zM1671 0h-221l-922 1163v-1163h-219v1528h217l920 -1168v1168h225v-1528z" />
    <glyph glyph-name="Ograve" unicode="&#xd2;" horiz-adv-x="2048" 
d="M1194 1665h-188l-215 250h239zM1845 762q0 -165 -67 -314.5t-178.5 -255t-262.5 -167.5t-315 -62q-228 0 -416.5 109t-296.5 298t-108 416q0 164 67.5 311.5t179.5 251t263 164t313 60.5q167 0 319 -63t262 -170.5t175 -258.5t65 -319zM1624 774q0 164 -82.5 296.5
t-220 205t-299.5 72.5q-169 0 -306 -74.5t-216.5 -209.5t-79.5 -304q0 -121 49.5 -228t132.5 -182t193.5 -118.5t228.5 -43.5q121 0 231.5 45.5t191.5 123t129 186.5t48 231z" />
    <glyph glyph-name="Oacute" unicode="&#xd3;" horiz-adv-x="2048" 
d="M1278 1915l-217 -250h-187l164 250h240zM1845 762q0 -165 -67 -314.5t-178.5 -255t-262.5 -167.5t-315 -62q-228 0 -416.5 109t-296.5 298t-108 416q0 164 67.5 311.5t179.5 251t263 164t313 60.5q167 0 319 -63t262 -170.5t175 -258.5t65 -319zM1624 774
q0 164 -82.5 296.5t-220 205t-299.5 72.5q-169 0 -306 -74.5t-216.5 -209.5t-79.5 -304q0 -121 49.5 -228t132.5 -182t193.5 -118.5t228.5 -43.5q121 0 231.5 45.5t191.5 123t129 186.5t48 231z" />
    <glyph glyph-name="Ocircumflex" unicode="&#xd4;" horiz-adv-x="2048" 
d="M1327 1665h-182l-123 147l-111 -147h-180l180 254h232zM1845 762q0 -165 -67 -314.5t-178.5 -255t-262.5 -167.5t-315 -62q-228 0 -416.5 109t-296.5 298t-108 416q0 164 67.5 311.5t179.5 251t263 164t313 60.5q167 0 319 -63t262 -170.5t175 -258.5t65 -319zM1624 774
q0 164 -82.5 296.5t-220 205t-299.5 72.5q-169 0 -306 -74.5t-216.5 -209.5t-79.5 -304q0 -121 49.5 -228t132.5 -182t193.5 -118.5t228.5 -43.5q121 0 231.5 45.5t191.5 123t129 186.5t48 231z" />
    <glyph glyph-name="Otilde" unicode="&#xd5;" horiz-adv-x="2048" 
d="M1356 1896q-3 -50 -10.5 -85.5t-25.5 -68.5t-52.5 -50t-85.5 -17q-82 0 -182.5 27t-120.5 27q-56 0 -56 -64h-153q0 109 42 165t148 56q50 0 142 -23.5t135 -23.5q33 0 50 12.5t17 44.5h152zM1845 762q0 -165 -67 -314.5t-178.5 -255t-262.5 -167.5t-315 -62
q-228 0 -416.5 109t-296.5 298t-108 416q0 164 67.5 311.5t179.5 251t263 164t313 60.5q167 0 319 -63t262 -170.5t175 -258.5t65 -319zM1624 774q0 164 -82.5 296.5t-220 205t-299.5 72.5q-169 0 -306 -74.5t-216.5 -209.5t-79.5 -304q0 -121 49.5 -228t132.5 -182
t193.5 -118.5t228.5 -43.5q121 0 231.5 45.5t191.5 123t129 186.5t48 231z" />
    <glyph glyph-name="Odieresis" unicode="&#xd6;" horiz-adv-x="2048" 
d="M1307 1692h-189v198h189v-198zM936 1692h-188v198h188v-198zM1845 762q0 -165 -67 -314.5t-178.5 -255t-262.5 -167.5t-315 -62q-228 0 -416.5 109t-296.5 298t-108 416q0 164 67.5 311.5t179.5 251t263 164t313 60.5q167 0 319 -63t262 -170.5t175 -258.5t65 -319z
M1624 774q0 164 -82.5 296.5t-220 205t-299.5 72.5q-169 0 -306 -74.5t-216.5 -209.5t-79.5 -304q0 -121 49.5 -228t132.5 -182t193.5 -118.5t228.5 -43.5q121 0 231.5 45.5t191.5 123t129 186.5t48 231z" />
    <glyph glyph-name="multiply" unicode="&#xd7;" horiz-adv-x="1820" 
d="M1343 776l-299 -297l295 -295l-135 -135l-295 295l-297 -299l-135 135l299 297l-295 295l135 135l295 -295l297 299z" />
    <glyph glyph-name="Oslash" unicode="&#xd8;" horiz-adv-x="2048" 
d="M1845 762q0 -165 -66.5 -314t-178 -254.5t-262.5 -168t-314 -62.5q-260 0 -471 143l-207 -231l-137 125l205 227q-102 113 -157.5 257t-55.5 296q0 166 66 314.5t177.5 252.5t262.5 165t315 61q135 0 248 -34t225 -109l174 192l137 -125l-170 -190q100 -113 154.5 -254.5
t54.5 -290.5zM1624 774q0 213 -135 369l-784 -869q145 -86 319 -86q121 0 231.5 45.5t191.5 123t129 186.5t48 231zM1346 1262q-89 53 -154 69.5t-172 16.5q-164 0 -301 -73.5t-218 -207t-81 -297.5q0 -105 36 -204.5t105 -174.5z" />
    <glyph glyph-name="Ugrave" unicode="&#xd9;" horiz-adv-x="1972" 
d="M1153 1665h-188l-215 250h239zM1659 578q0 -132 -20.5 -216t-88.5 -172q-47 -62 -115.5 -106.5t-147.5 -68.5t-156.5 -35t-159.5 -11q-176 0 -332 61.5t-244 190.5q-54 79 -70 159t-16 198v950h221v-950q0 -95 15.5 -156.5t70.5 -116.5q112 -112 390 -112q110 0 187 18
t134.5 61.5t85 119t27.5 186.5v950h219v-950z" />
    <glyph glyph-name="Uacute" unicode="&#xda;" horiz-adv-x="1972" 
d="M1257 1915l-217 -250h-186l164 250h239zM1659 580q0 -132 -20.5 -217t-88.5 -173q-47 -62 -115.5 -106.5t-147.5 -68.5t-156.5 -35t-159.5 -11q-176 0 -332 61.5t-244 190.5q-54 79 -70 159.5t-16 199.5v948h221v-948q0 -96 16 -158.5t70 -116.5q112 -112 390 -112
q110 0 187 18.5t134.5 62t85 119.5t27.5 187v948h219v-948z" />
    <glyph glyph-name="Ucircumflex" unicode="&#xdb;" horiz-adv-x="1972" 
d="M1276 1665h-182l-123 147l-111 -147h-180l180 254h232zM1659 580q0 -132 -20.5 -217t-88.5 -173q-47 -62 -115.5 -106.5t-147.5 -68.5t-156.5 -35t-159.5 -11q-176 0 -332 61.5t-244 190.5q-54 79 -70 159.5t-16 199.5v948h221v-948q0 -96 16 -158.5t70 -116.5
q112 -112 390 -112q110 0 187 18.5t134.5 62t85 119.5t27.5 187v948h219v-948z" />
    <glyph glyph-name="Udieresis" unicode="&#xdc;" horiz-adv-x="1972" 
d="M1253 1692h-188v198h188v-198zM883 1692h-189v198h189v-198zM1659 580q0 -132 -20.5 -217t-88.5 -173q-47 -62 -115.5 -106.5t-147.5 -68.5t-156.5 -35t-159.5 -11q-176 0 -332 61.5t-244 190.5q-54 79 -70 159.5t-16 199.5v948h221v-948q0 -96 16 -158.5t70 -116.5
q112 -112 390 -112q110 0 187 18.5t134.5 62t85 119.5t27.5 187v948h219v-948z" />
    <glyph glyph-name="Yacute" unicode="&#xdd;" horiz-adv-x="1554" 
d="M1059 1915l-217 -250h-187l164 250h240zM1522 1528l-631 -866v-662h-221v662l-621 866h268l467 -647l461 647h277z" />
    <glyph glyph-name="Thorn" unicode="&#xde;" horiz-adv-x="1781" 
d="M1647 784q0 -202 -122.5 -322t-324.5 -120h-663v-342h-224v1528h224v-309h663q203 0 325 -116.5t122 -318.5zM1425 782q0 113 -56 163t-169 50h-663v-430h663q109 0 167 54t58 163z" />
    <glyph glyph-name="germandbls" unicode="&#xdf;" horiz-adv-x="2809" 
d="M2685 319q0 -85 -35.5 -150t-90.5 -103t-131 -62t-146.5 -32.5t-147.5 -8.5q-198 0 -315.5 37.5t-280.5 151.5l98 190q157 -99 270 -131.5t298 -32.5q40 0 81.5 7t85 22.5t71.5 47.5t28 75q0 97 -160 106q-59 3 -167 4.5t-150 3.5q-76 3 -143.5 23.5t-123 59t-88 101
t-32.5 142.5q0 77 32 136t81 94t117.5 57.5t132.5 30.5t134 8q142 0 259 -33.5t253 -106.5l-96 -188q-222 117 -467 117q-34 0 -69.5 -5.5t-74.5 -17.5t-64 -38t-25 -62q0 -30 19.5 -51.5t52 -32t60 -14.5t56.5 -5q46 -2 138.5 -3t138.5 -3q84 -3 153 -22t126.5 -56.5
t89.5 -102.5t32 -153zM1272 319q0 -85 -35.5 -150t-90.5 -103t-131 -62t-146.5 -32.5t-147.5 -8.5q-198 0 -315.5 37.5t-280.5 151.5l98 190q157 -99 270 -131.5t298 -32.5q40 0 81.5 7t85 22.5t71.5 47.5t28 75q0 97 -160 106q-59 3 -167 4.5t-150 3.5q-76 3 -143.5 23.5
t-123 59t-88 101t-32.5 142.5q0 77 32 136t81 94t117.5 57.5t132.5 30.5t134 8q142 0 259 -33.5t253 -106.5l-96 -188q-222 117 -467 117q-34 0 -69.5 -5.5t-74.5 -17.5t-64 -38t-25 -62q0 -30 19.5 -51.5t52 -32t60 -14.5t56.5 -5q46 -2 138 -3t138 -3q67 -3 124 -14.5
t109 -37t89 -62.5t58.5 -93t21.5 -127z" />
    <glyph glyph-name="agrave" unicode="&#xe0;" horiz-adv-x="1402" 
d="M887 1188h-189l-215 250h240zM1348 0h-242l-107 223h-620l-107 -223h-241l514 1061h282zM893 434l-205 420l-205 -420h410z" />
    <glyph glyph-name="aacute" unicode="&#xe1;" horiz-adv-x="1402" 
d="M868 1438l-217 -250h-186l164 250h239zM1348 0h-242l-107 223h-620l-107 -223h-241l514 1061h282zM893 434l-205 420l-205 -420h410z" />
    <glyph glyph-name="acircumflex" unicode="&#xe2;" horiz-adv-x="1402" 
d="M977 1188h-182l-123 147l-111 -147h-180l180 254h232zM1348 0h-242l-107 223h-620l-107 -223h-241l514 1061h282zM893 434l-205 420l-205 -420h410z" />
    <glyph glyph-name="atilde" unicode="&#xe3;" horiz-adv-x="1402" 
d="M1028 1419q-3 -50 -10.5 -85.5t-25.5 -68.5t-52.5 -50t-85.5 -17q-82 0 -182.5 26.5t-120.5 26.5q-55 0 -55 -63h-154q0 109 42 165t148 56q50 0 142 -23.5t135 -23.5q33 0 50.5 12.5t17.5 44.5h151zM1348 0h-242l-107 223h-620l-107 -223h-241l514 1061h282zM893 434
l-205 420l-205 -420h410z" />
    <glyph glyph-name="adieresis" unicode="&#xe4;" horiz-adv-x="1402" 
d="M963 1214h-189v199h189v-199zM592 1214h-189v199h189v-199zM1348 0h-242l-107 223h-620l-107 -223h-241l514 1061h282zM893 434l-205 420l-205 -420h410z" />
    <glyph glyph-name="aring" unicode="&#xe5;" horiz-adv-x="1402" 
d="M911 1407q0 -96 -68.5 -164.5t-164.5 -68.5q-97 0 -166.5 68.5t-69.5 164.5t69 164.5t165 68.5q97 0 166 -68t69 -165zM1348 0h-242l-107 223h-620l-107 -223h-241l514 1061h282zM778 1407q0 41 -29.5 71.5t-70.5 30.5q-43 0 -74 -30t-31 -72q0 -41 30.5 -70.5
t72.5 -29.5q41 0 70.5 29.5t29.5 70.5h2zM893 434l-205 420l-205 -420h410z" />
    <glyph glyph-name="ae" unicode="&#xe6;" horiz-adv-x="2084" 
d="M1960 0h-963v223h-520l-190 -223h-238l924 1061h962v-213h-727v-195h385v-211h-385v-229h752v-213zM997 434v404l-340 -404h340z" />
    <glyph glyph-name="ccedilla" unicode="&#xe7;" horiz-adv-x="1517" 
d="M1391 131q-133 -84 -220 -115.5t-237 -46.5l-82 -110q209 0 209 -156q0 -60 -26.5 -102t-72.5 -63t-93.5 -29.5t-104.5 -8.5q-65 0 -109.5 13.5t-105.5 48.5l49 112q69 -43 172 -43q41 0 76 16.5t35 53.5q0 32 -29.5 50t-63.5 18q-41 0 -94 -17l-41 55l117 162
q-117 10 -219.5 50.5t-182 108t-125.5 167.5t-46 221q0 130 51 240t137.5 184t201.5 115t242 41q162 0 278 -47.5t265 -157.5l-125 -186q-101 88 -199.5 131t-222.5 43q-103 0 -196.5 -41.5t-156 -124t-62.5 -187.5q0 -108 65 -189.5t160.5 -120t200.5 -38.5q144 0 235 31.5
t223 118.5z" />
    <glyph glyph-name="egrave" unicode="&#xe8;" horiz-adv-x="1402" 
d="M948 1188h-188l-215 250h239zM1278 0h-963v1061h938v-213h-729v-195h385v-211h-385v-229h754v-213z" />
    <glyph glyph-name="eacute" unicode="&#xe9;" horiz-adv-x="1402" 
d="M1032 1438l-217 -250h-186l164 250h239zM1278 0h-963v1061h938v-213h-729v-195h385v-211h-385v-229h754v-213z" />
    <glyph glyph-name="ecircumflex" unicode="&#xea;" horiz-adv-x="1402" 
d="M1075 1188h-182l-123 147l-111 -147h-180l180 254h232zM1278 0h-963v1061h938v-213h-729v-195h385v-211h-385v-229h754v-213z" />
    <glyph glyph-name="edieresis" unicode="&#xeb;" horiz-adv-x="1402" 
d="M1067 1214h-188v199h188v-199zM696 1214h-188v199h188v-199zM1278 0h-963v1061h938v-213h-729v-195h385v-211h-385v-229h754v-213z" />
    <glyph glyph-name="igrave" unicode="&#xec;" 
d="M559 1188h-188l-215 250h239zM504 0h-209v1061h209v-1061z" />
    <glyph glyph-name="iacute" unicode="&#xed;" 
d="M643 1438l-217 -250h-186l163 250h240zM504 0h-209v1061h209v-1061z" />
    <glyph glyph-name="icircumflex" unicode="&#xee;" 
d="M698 1188h-182l-123 147l-110 -147h-181l181 254h231zM504 0h-209v1061h209v-1061z" />
    <glyph glyph-name="idieresis" unicode="&#xef;" 
d="M678 1214h-189v199h189v-199zM307 1214h-188v199h188v-199zM504 0h-209v1061h209v-1061z" />
    <glyph glyph-name="eth" unicode="&#xf0;" horiz-adv-x="1554" 
d="M1421 539q0 -122 -44 -231t-130 -187q-79 -71 -161.5 -96t-200.5 -25h-576v451h-178v190h178v420h576q112 0 178.5 -14t142.5 -66q105 -71 160 -189.5t55 -252.5zM1206 535q0 154 -83.5 233.5t-237.5 79.5h-355v-207h328v-190h-328v-238h355q152 0 236.5 85t84.5 237z
" />
    <glyph glyph-name="ntilde" unicode="&#xf1;" horiz-adv-x="1630" 
d="M1157 1419q-3 -50 -10.5 -85.5t-25.5 -68.5t-52.5 -50t-85.5 -17q-82 0 -182.5 26.5t-120.5 26.5q-55 0 -55 -63h-154q0 109 42 165t149 56q50 0 141.5 -23.5t134.5 -23.5q33 0 50.5 12.5t17.5 44.5h151zM1323 0h-211l-590 719v-719h-211v1061h211l590 -717v717h211
v-1061z" />
    <glyph glyph-name="ograve" unicode="&#xf2;" horiz-adv-x="1705" 
d="M989 1188h-188l-215 250h239zM1503 541q0 -105 -35.5 -197.5t-98 -161t-145.5 -118t-179 -74.5t-197 -25q-126 0 -242.5 39.5t-207 110.5t-145 180.5t-54.5 239.5t55 238t147 177.5t208 107.5t241 38q101 0 196 -22t178 -68t145 -111t98 -156t36 -198zM1288 539
q0 86 -38.5 153t-102.5 106.5t-139 60t-156 20.5q-65 0 -127 -13t-119 -40.5t-99.5 -67.5t-67.5 -99t-25 -129t25.5 -128.5t68.5 -98t100 -67.5t119 -41t127 -13q80 0 156.5 24t139 67.5t100.5 113t38 152.5z" />
    <glyph glyph-name="oacute" unicode="&#xf3;" horiz-adv-x="1705" 
d="M1073 1438l-217 -250h-186l164 250h239zM1503 541q0 -105 -35.5 -197.5t-98 -161t-145.5 -118t-179 -74.5t-197 -25q-126 0 -242.5 39.5t-207 110.5t-145 180.5t-54.5 239.5t55 238t147 177.5t208 107.5t241 38q101 0 196 -22t178 -68t145 -111t98 -156t36 -198z
M1288 539q0 86 -38.5 153t-102.5 106.5t-139 60t-156 20.5q-65 0 -127 -13t-119 -40.5t-99.5 -67.5t-67.5 -99t-25 -129t25.5 -128.5t68.5 -98t100 -67.5t119 -41t127 -13q80 0 156.5 24t139 67.5t100.5 113t38 152.5z" />
    <glyph glyph-name="ocircumflex" unicode="&#xf4;" horiz-adv-x="1705" 
d="M1147 1188h-182l-123 147l-111 -147h-180l180 254h232zM1503 541q0 -105 -35.5 -197.5t-98 -161t-145.5 -118t-179 -74.5t-197 -25q-126 0 -242.5 39.5t-207 110.5t-145 180.5t-54.5 239.5t55 238t147 177.5t208 107.5t241 38q101 0 196 -22t178 -68t145 -111t98 -156
t36 -198zM1288 539q0 86 -38.5 153t-102.5 106.5t-139 60t-156 20.5q-65 0 -127 -13t-119 -40.5t-99.5 -67.5t-67.5 -99t-25 -129t25.5 -128.5t68.5 -98t100 -67.5t119 -41t127 -13q80 0 156.5 24t139 67.5t100.5 113t38 152.5z" />
    <glyph glyph-name="otilde" unicode="&#xf5;" horiz-adv-x="1705" 
d="M1184 1419q-3 -50 -10.5 -85.5t-25.5 -68.5t-52.5 -50t-85.5 -17q-82 0 -182.5 26.5t-120.5 26.5q-56 0 -56 -63h-153q0 109 42 165t148 56q50 0 142 -23.5t135 -23.5q33 0 50 12.5t17 44.5h152zM1503 541q0 -105 -35.5 -197.5t-98 -161t-145.5 -118t-179 -74.5t-197 -25
q-126 0 -242.5 39.5t-207 110.5t-145 180.5t-54.5 239.5t55 238t147 177.5t208 107.5t241 38q101 0 196 -22t178 -68t145 -111t98 -156t36 -198zM1288 539q0 86 -38.5 153t-102.5 106.5t-139 60t-156 20.5q-65 0 -127 -13t-119 -40.5t-99.5 -67.5t-67.5 -99t-25 -129
t25.5 -128.5t68.5 -98t100 -67.5t119 -41t127 -13q80 0 156.5 24t139 67.5t100.5 113t38 152.5z" />
    <glyph glyph-name="odieresis" unicode="&#xf6;" horiz-adv-x="1705" 
d="M1128 1214h-188v199h188v-199zM758 1214h-189v199h189v-199zM1503 541q0 -105 -35.5 -197.5t-98 -161t-145.5 -118t-179 -74.5t-197 -25q-126 0 -242.5 39.5t-207 110.5t-145 180.5t-54.5 239.5t55 238t147 177.5t208 107.5t241 38q101 0 196 -22t178 -68t145 -111
t98 -156t36 -198zM1288 539q0 86 -38.5 153t-102.5 106.5t-139 60t-156 20.5q-65 0 -127 -13t-119 -40.5t-99.5 -67.5t-67.5 -99t-25 -129t25.5 -128.5t68.5 -98t100 -67.5t119 -41t127 -13q80 0 156.5 24t139 67.5t100.5 113t38 152.5z" />
    <glyph glyph-name="divide" unicode="&#xf7;" horiz-adv-x="1820" 
d="M1044 834q0 -57 -38.5 -96.5t-94.5 -39.5q-57 0 -96 38.5t-39 94.5q0 57 38.5 96.5t94.5 39.5q57 0 96 -38.5t39 -94.5zM1397 383h-973v190h973v-190zM1044 123v2q0 -57 -38.5 -96t-94.5 -39q-57 0 -96 38.5t-39 94.5q0 57 38.5 96t94.5 39q57 0 96 -39t39 -96z" />
    <glyph glyph-name="oslash" unicode="&#xf8;" horiz-adv-x="1705" 
d="M1503 539q0 -129 -55 -239t-147 -182t-209 -112.5t-242 -40.5q-101 0 -169 15.5t-163 58.5l-168 -191l-119 115l150 166q-83 71 -132.5 184t-49.5 224q0 104 36 194.5t98 156.5t144.5 113.5t177 71t193.5 23.5q103 0 171.5 -14.5t162.5 -55.5l153 170l119 -115l-129 -143
q85 -79 131.5 -181.5t46.5 -217.5zM1288 539q0 138 -108 235l-506 -563q100 -29 178 -29q81 0 157.5 23t139.5 66.5t101 113t38 154.5zM1028 850q-100 29 -174 29q-81 0 -157.5 -20.5t-140.5 -61t-103 -108.5t-39 -154q0 -67 30 -133.5t80 -112.5z" />
    <glyph glyph-name="ugrave" unicode="&#xf9;" horiz-adv-x="1630" 
d="M969 1188h-189l-215 250h240zM1325 416q0 -95 -15 -158t-65 -125q-71 -88 -191 -128t-253 -40q-231 0 -365.5 112.5t-134.5 338.5v645h211v-645q0 -63 17 -107.5t42.5 -69.5t70.5 -38.5t86 -17t103 -3.5q124 0 205 47q45 25 62.5 64.5t17.5 124.5v645h209v-645z" />
    <glyph glyph-name="uacute" unicode="&#xfa;" horiz-adv-x="1630" 
d="M1073 1438l-217 -250h-186l164 250h239zM1325 416q0 -95 -15 -158t-65 -125q-71 -88 -191 -128t-253 -40q-231 0 -365.5 112.5t-134.5 338.5v645h211v-645q0 -63 17 -107.5t42.5 -69.5t70.5 -38.5t86 -17t103 -3.5q124 0 205 47q45 25 62.5 64.5t17.5 124.5v645h209v-645
z" />
    <glyph glyph-name="ucircumflex" unicode="&#xfb;" horiz-adv-x="1630" 
d="M1114 1188h-182l-123 147l-111 -147h-180l180 254h232zM1325 416q0 -95 -15 -158t-65 -125q-71 -88 -191 -128t-253 -40q-231 0 -365.5 112.5t-134.5 338.5v645h211v-645q0 -63 17 -107.5t42.5 -69.5t70.5 -38.5t86 -17t103 -3.5q124 0 205 47q45 25 62.5 64.5
t17.5 124.5v645h209v-645z" />
    <glyph glyph-name="udieresis" unicode="&#xfc;" horiz-adv-x="1630" 
d="M1092 1214h-189v199h189v-199zM721 1214h-189v199h189v-199zM1325 416q0 -95 -15 -158t-65 -125q-71 -88 -191 -128t-253 -40q-231 0 -365.5 112.5t-134.5 338.5v645h211v-645q0 -63 17 -107.5t42.5 -69.5t70.5 -38.5t86 -17t103 -3.5q124 0 205 47q45 25 62.5 64.5
t17.5 124.5v645h209v-645z" />
    <glyph glyph-name="yacute" unicode="&#xfd;" horiz-adv-x="1175" 
d="M922 1438l-217 -250h-187l164 250h240zM1145 1061l-438 -633v-428h-209v428l-447 633h266l283 -418l291 418h254z" />
    <glyph glyph-name="thorn" unicode="&#xfe;" horiz-adv-x="1441" 
d="M1323 545q0 -144 -94 -246q-57 -62 -121 -79t-168 -17h-428v-203h-209v1061h209v-182h428q114 0 163.5 -13t104.5 -61q54 -46 84.5 -116t30.5 -144zM1108 547q0 37 -13.5 62.5t-39 37.5t-52.5 16.5t-63 4.5h-428v-254h428q85 0 126.5 26.5t41.5 106.5z" />
    <glyph glyph-name="ydieresis" unicode="&#xff;" horiz-adv-x="1175" 
d="M887 1214h-189v199h189v-199zM516 1214h-188v199h188v-199zM1145 1061l-438 -633v-428h-209v428l-447 633h266l283 -418l291 418h254z" />
    <glyph glyph-name="dotlessi" unicode="&#x131;" 
d="M504 0h-209v1061h209v-1061z" />
    <glyph glyph-name="Lslash" unicode="&#x141;" horiz-adv-x="1517" 
d="M1473 0h-1154v608l-157 -102l-101 141l258 182v711h224v-555l282 199l101 -142l-383 -278v-541h930v-223z" />
    <glyph glyph-name="lslash" unicode="&#x142;" horiz-adv-x="1175" 
d="M1124 0h-823v377l-92 -58l-92 136l184 131v475h219v-320l160 107l92 -135l-252 -181v-315h604v-217z" />
    <glyph glyph-name="OE" unicode="&#x152;" horiz-adv-x="2693" 
d="M2554 0h-1264q-14 0 -102 -18.5t-164 -18.5q-234 0 -422 104.5t-294.5 291t-106.5 419.5q0 174 63.5 323t174.5 252.5t265 161.5t330 58q71 0 170.5 -21.5t106.5 -21.5h1204v-225h-1034v-400h520v-221h-520v-461h1073v-223zM1257 233v1072q-66 25 -116.5 34t-120.5 9
q-170 0 -306 -69.5t-215 -202t-79 -306.5q0 -176 78.5 -309t215 -203t310.5 -70q68 0 117.5 10t115.5 35z" />
    <glyph glyph-name="oe" unicode="&#x153;" horiz-adv-x="2121" 
d="M1997 0h-897q-8 0 -94 -17.5t-158 -17.5q-187 0 -333.5 66.5t-231 196.5t-84.5 304q0 138 50.5 245.5t141.5 175.5t214 103.5t272 35.5q56 0 127 -15.5t98 -15.5h870v-213h-729v-195h385v-211h-385v-229h754v-213zM1047 205v653q-100 21 -173 21q-101 0 -181 -18.5
t-142 -58.5t-95.5 -108.5t-33.5 -161.5q0 -178 123.5 -264t328.5 -86q83 0 173 23z" />
    <glyph glyph-name="Scaron" unicode="&#x160;" horiz-adv-x="1705" 
d="M1180 1919l-183 -254h-231l-182 254h178l110 -147l123 147h185zM1581 446q0 -107 -47 -192t-121 -138t-172 -88t-192.5 -49t-190.5 -14q-236 0 -418.5 74t-345.5 240l156 149q144 -133 289 -185.5t350 -52.5q56 0 115 7t124.5 26.5t116 49t84 79.5t33.5 113
q0 108 -102 174q-57 36 -128 46t-253 13l-230 4q-91 2 -171.5 27t-144.5 72t-101 122.5t-37 170.5q0 81 31.5 153t86 125.5t120.5 93.5t142 64q124 39 265 39q358 0 635 -209l-125 -178q-139 85 -241 122t-241 37q-50 0 -104.5 -6t-117.5 -23t-112 -43.5t-81.5 -71
t-32.5 -101.5q0 -176 258 -176h227q79 0 125.5 -2t109 -10.5t117 -28.5t109.5 -52q103 -61 159 -161t56 -220z" />
    <glyph glyph-name="scaron" unicode="&#x161;" horiz-adv-x="1402" 
d="M991 1442l-182 -254h-231l-183 254h178l111 -148l123 148h184zM1272 319q0 -85 -35.5 -150t-90.5 -103t-131 -62t-146.5 -32.5t-147.5 -8.5q-198 0 -315.5 37.5t-280.5 151.5l98 190q157 -99 270 -131.5t298 -32.5q40 0 81.5 7t85 22.5t71.5 47.5t28 75q0 97 -160 106
q-59 3 -167 4.5t-150 3.5q-76 3 -143.5 23.5t-123 59t-88 101t-32.5 142.5q0 77 32 136t81 94t117.5 57.5t132.5 30.5t134 8q142 0 259 -33.5t253 -106.5l-96 -188q-222 117 -467 117q-34 0 -69.5 -5.5t-74.5 -17.5t-64 -38t-25 -62q0 -30 19.5 -51.5t52 -32t60 -14.5
t56.5 -5q46 -2 138 -3t138 -3q67 -3 124 -14.5t109 -37t89 -62.5t58.5 -93t21.5 -127z" />
    <glyph glyph-name="Ydieresis" unicode="&#x178;" horiz-adv-x="1554" 
d="M1055 1692h-189v198h189v-198zM684 1692h-188v198h188v-198zM1522 1528l-631 -866v-662h-221v662l-621 866h268l467 -647l461 647h277z" />
    <glyph glyph-name="Zcaron" unicode="&#x17d;" horiz-adv-x="1441" 
d="M1024 1919l-182 -254h-232l-182 254h178l111 -147l123 147h184zM1389 0h-1272l-72 154l975 1149h-889v225h1165l80 -152l-979 -1149h992v-227z" />
    <glyph glyph-name="zcaron" unicode="&#x17e;" horiz-adv-x="1099" 
d="M850 1442l-182 -254h-232l-182 254h178l111 -148l123 148h184zM1067 0h-961l-73 137l657 711h-584v213h867l94 -143l-661 -705h661v-213z" />
    <glyph glyph-name="florin" unicode="&#x192;" horiz-adv-x="1441" 
d="M1210 1356l-32 -180q-82 8 -121 8q-96 0 -153 -38t-70 -128l-11 -68h305l-20 -168h-309l-78 -549q-37 -259 -84 -358q-25 -53 -61 -89.5t-82 -56t-94 -27t-109 -7.5q-25 0 -53.5 1t-63 2.5t-53.5 2.5l39 184q98 -4 147 -4q62 0 101 25q13 8 24.5 21.5t20.5 33t16.5 36.5
t14.5 45t11 43.5t8.5 47.5t6.5 42.5t6 41.5t4 33l74 532h-293l33 168h282l21 133q12 76 46 132t86 89t114.5 48.5t138.5 15.5q94 0 188 -12z" />
    <glyph glyph-name="circumflex" unicode="&#x2c6;" 
d="M696 1174h-182l-123 147l-110 -147h-181l181 253h231z" />
    <glyph glyph-name="caron" unicode="&#x2c7;" 
d="M696 1427l-182 -253h-231l-183 253h179l110 -147l123 147h184z" />
    <glyph glyph-name="uni02C9" unicode="&#x2c9;" 
d="M676 1241h-555v133h555v-133z" />
    <glyph glyph-name="breve" unicode="&#x2d8;" 
d="M707 1425q-5 -80 -50.5 -138t-113 -85.5t-146.5 -27.5q-122 0 -210 66t-97 185h168q12 -49 50 -77.5t89 -28.5q52 0 90 28.5t50 77.5h170z" />
    <glyph glyph-name="dotaccent" unicode="&#x2d9;" 
d="M494 1200h-191v199h191v-199z" />
    <glyph glyph-name="ring" unicode="&#x2da;" 
d="M633 1407q0 -96 -69 -164.5t-165 -68.5q-97 0 -166 68t-69 165q0 96 68.5 164.5t164.5 68.5q97 0 166.5 -68.5t69.5 -164.5zM500 1407q0 41 -30 71.5t-71 30.5q-43 0 -73.5 -29.5t-30.5 -72.5q0 -41 30.5 -70.5t71.5 -29.5t71 29.5t30 70.5h2z" />
    <glyph glyph-name="ogonek" unicode="&#x2db;" 
d="M608 -330q-102 -94 -243 -94q-78 0 -127.5 43t-49.5 119q0 199 250 321l74 -20q-37 -51 -58 -82.5t-45 -85t-24 -94.5q0 -37 21.5 -59.5t58.5 -22.5q65 0 119 41z" />
    <glyph glyph-name="tilde" unicode="&#x2dc;" 
d="M741 1405q-3 -50 -10.5 -85.5t-25.5 -68.5t-52.5 -50t-85.5 -17q-82 0 -182.5 26.5t-120.5 26.5q-55 0 -55 -63h-154q0 109 42 165t149 56q50 0 141.5 -23.5t134.5 -23.5q33 0 50.5 12.5t17.5 44.5h151z" />
    <glyph glyph-name="hungarumlaut" unicode="&#x2dd;" 
d="M762 1423l-217 -249h-189l164 249h242zM438 1423l-215 -249h-188l164 249h239z" />
    <glyph glyph-name="uni03A9" unicode="&#x3a9;" horiz-adv-x="1982" 
d="M1896 0h-690v184q67 39 119.5 75t119 95t110 119t74 144t30.5 174q0 89 -42 172.5t-121 151t-205 108.5t-281 41q-130 0 -248.5 -32.5t-211 -92.5t-147.5 -152t-55 -203q0 -90 32 -174t76.5 -144t112 -119t117 -92t113.5 -71v-184h-695v184h467q-88 40 -165.5 96
t-146.5 133.5t-109.5 182.5t-40.5 223q0 188 111.5 333t314 225.5t464.5 80.5q224 0 399.5 -53t282 -142.5t161 -201t54.5 -236.5q0 -143 -70 -274.5t-177.5 -222.5t-237.5 -144h485v-184z" />
    <glyph glyph-name="uni03BC" unicode="&#x3bc;" horiz-adv-x="1630" 
d="M1325 0h-199v111q-32 -43 -124.5 -94.5t-192.5 -51.5t-186 43t-111 94v-415h-211v1374h211v-645q0 -63 18 -108t44.5 -69t69.5 -38t80 -17.5t89 -3.5q69 0 121 11t95 36.5t65 73t22 115.5v645h209v-1061z" />
    <glyph glyph-name="pi" unicode="&#x3c0;" horiz-adv-x="2193" 
d="M1905 168l43 -150q-76 -34 -201 -34q-156 0 -236.5 79.5t-80.5 233.5v561h-662v-579q0 -168 -49 -279h-230q24 49 38 131.5t14 155.5v571q-68 -2 -151.5 -19.5t-141.5 -43.5q-1 6 -32 75.5t-32 75.5q58 31 164 54.5t217 23.5h1383v-166h-293v-532q0 -87 37 -131.5
t120 -44.5q37 0 93 18z" />
    <glyph glyph-name="endash" unicode="&#x2013;" horiz-adv-x="757" 
d="M778 434h-796v195h796v-195z" />
    <glyph glyph-name="emdash" unicode="&#x2014;" horiz-adv-x="2048" 
d="M2066 434h-2084v195h2084v-195z" />
    <glyph glyph-name="uni2015" unicode="&#x2015;" horiz-adv-x="2048" 
d="M2048 -51h-2048l2 51h2046v-51z" />
    <glyph glyph-name="quoteleft" unicode="&#x2018;" horiz-adv-x="833" 
d="M535 1096q0 -51 -40.5 -89t-91.5 -38q-86 0 -138 71.5t-52 161.5q0 61 18.5 116t52 99t60 70.5t62.5 56.5q10 8 32 19.5t29 11.5q22 0 35.5 -13.5t13.5 -39.5q0 -33 -31 -56q-47 -29 -82.5 -78t-35.5 -98q0 -53 41 -53q59 0 93 -39t34 -102z" />
    <glyph glyph-name="quoteright" unicode="&#x2019;" horiz-adv-x="833" 
d="M627 1343q0 -62 -18 -117.5t-51 -99.5t-59.5 -70.5t-62.5 -56.5q-45 -30 -61 -30q-21 0 -35 14t-14 39q0 34 30 57q47 29 83 78t36 98q0 54 -41 54q-59 0 -94 38.5t-35 102.5q0 51 41 88t92 37q86 0 137.5 -71t51.5 -161z" />
    <glyph glyph-name="quotesinglbase" unicode="&#x201a;" horiz-adv-x="833" 
d="M627 4q0 -62 -18 -117.5t-51 -99.5t-59.5 -70.5t-62.5 -56.5q-47 -31 -61 -31q-21 0 -35 14.5t-14 39.5q0 35 30 57q47 29 83 78t36 98q0 53 -41 53q-59 0 -94 39t-35 103q0 51 41 88t92 37q86 0 137.5 -71t51.5 -161z" />
    <glyph glyph-name="quotedblleft" unicode="&#x201c;" horiz-adv-x="1366" 
d="M1077 1096q0 -51 -40 -89t-91 -38q-86 0 -138 71.5t-52 161.5q0 50 13.5 97t32 80.5t47.5 68t50 54t49 42.5q9 8 32 19.5t30 11.5q22 0 35.5 -13.5t13.5 -39.5q0 -33 -31 -56q-47 -29 -83 -78t-36 -98q0 -53 41 -53q59 0 93 -39t34 -102zM627 1096q0 -51 -40 -89t-91 -38
q-86 0 -138.5 71.5t-52.5 161.5q0 61 18.5 116t52 99t60 70.5t62.5 56.5q10 8 32 19.5t29 11.5q22 0 35.5 -13.5t13.5 -39.5q0 -34 -30 -56q-47 -29 -83 -78t-36 -98q0 -53 41 -53q59 0 93 -39t34 -102z" />
    <glyph glyph-name="quotedblright" unicode="&#x201d;" horiz-adv-x="1366" 
d="M1077 1343q0 -62 -18 -117.5t-50.5 -99t-59 -71t-62.5 -56.5q-45 -30 -62 -30q-21 0 -35 14t-14 39q0 34 31 57q47 29 83 78t36 98q0 54 -41 54q-59 0 -94 38.5t-35 102.5q0 51 41 88t92 37q86 0 137 -71t51 -161zM627 1343q0 -62 -18 -117.5t-51 -99.5t-59.5 -70.5
t-62.5 -56.5q-45 -30 -61 -30q-21 0 -35 14t-14 39q0 34 30 57q47 29 83 78t36 98q0 54 -41 54q-59 0 -94 38.5t-35 102.5q0 51 41 88t92 37q86 0 137.5 -71t51.5 -161z" />
    <glyph glyph-name="quotedblbase" unicode="&#x201e;" horiz-adv-x="1366" 
d="M1077 4q0 -62 -18 -117.5t-50.5 -99t-59 -71t-62.5 -56.5q-47 -31 -62 -31q-21 0 -35 14.5t-14 39.5q0 34 31 57q47 29 83 78t36 98q0 53 -41 53q-59 0 -94 39t-35 103q0 51 41 88t92 37q86 0 137 -71t51 -161zM627 4q0 -62 -18 -117.5t-51 -99.5t-59.5 -70.5
t-62.5 -56.5q-47 -31 -61 -31q-21 0 -35 14.5t-14 39.5q0 35 30 57q47 29 83 78t36 98q0 53 -41 53q-59 0 -94 39t-35 103q0 51 41 88t92 37q86 0 137.5 -71t51.5 -161z" />
    <glyph glyph-name="dagger" unicode="&#x2020;" horiz-adv-x="1214" 
d="M1094 918h-385v-918h-203v918h-387v192h387v416h203v-416h385v-192z" />
    <glyph glyph-name="daggerdbl" unicode="&#x2021;" horiz-adv-x="1214" 
d="M1094 391h-385v-391h-203v391h-387v193h387v366h-387v193h387v383h203v-383h385v-193h-385v-366h385v-193z" />
    <glyph glyph-name="bullet" unicode="&#x2022;" horiz-adv-x="1024" 
d="M793 762q0 -115 -81.5 -196t-197.5 -81t-197 81t-81 196q0 116 81.5 198t196.5 82t197 -82t82 -198z" />
    <glyph glyph-name="ellipsis" unicode="&#x2026;" horiz-adv-x="2277" 
d="M2042 113q0 -60 -42 -104t-102 -44t-101.5 44t-41.5 104t41.5 103.5t101.5 43.5q61 0 102.5 -44t41.5 -103zM1282 113q0 -60 -41.5 -104t-101.5 -44t-102 44t-42 104t42 103.5t102 43.5t101.5 -43.5t41.5 -103.5zM522 113q0 -60 -41.5 -104t-101.5 -44t-101.5 44
t-41.5 104t41.5 103.5t101.5 43.5t101.5 -43.5t41.5 -103.5z" />
    <glyph glyph-name="perthousand" unicode="&#x2030;" horiz-adv-x="3678" 
d="M3551 389q0 -103 -43.5 -186.5t-116.5 -135t-164 -79t-190 -27.5q-128 0 -238 49t-181.5 147.5t-71.5 227.5q0 105 41 189t111 136t160 79.5t191 27.5q96 0 185.5 -29t160.5 -82t113.5 -135.5t42.5 -181.5zM2425 389q0 -103 -43.5 -186.5t-116.5 -135t-164 -79
t-190 -27.5q-128 0 -238.5 49t-182 147.5t-71.5 227.5q0 105 41 189t111.5 136t160.5 79.5t191 27.5q96 0 185.5 -29t160 -82t112.5 -135.5t42 -181.5h2zM1950 1470l-1131 -1552h-196l1128 1552h199zM1124 940q0 -84 -28.5 -154.5t-78 -120.5t-115.5 -85t-140.5 -51.5
t-153.5 -16.5q-128 0 -238 49t-181.5 147.5t-71.5 227.5q0 105 41 189t111.5 136t160.5 79.5t191 27.5q96 0 185.5 -28.5t161 -81.5t114 -135.5t42.5 -182.5zM3344 393q0 106 -87 173t-201 67q-119 0 -210 -68t-91 -178q0 -72 44 -129t111 -86t142 -29q117 0 204.5 70
t87.5 180zM2218 393q0 106 -87 173t-202 67q-119 0 -210 -68t-91 -178q0 -72 44 -129t111 -86t142 -29q117 0 204 70t87 180h2zM915 944q0 106 -87 173t-201 67q-119 0 -210 -68t-91 -178q0 -72 44 -129t111 -86t142 -29q117 0 203.5 70t86.5 180h2z" />
    <glyph glyph-name="guilsinglleft" unicode="&#x2039;" horiz-adv-x="720" 
d="M600 137h-205l-274 402l274 395h205l-235 -395z" />
    <glyph glyph-name="guilsinglright" unicode="&#x203a;" horiz-adv-x="720" 
d="M600 539l-274 -402h-205l235 402l-235 395h205z" />
    <glyph glyph-name="fraction" unicode="&#x2044;" horiz-adv-x="634" 
d="M989 1470l-1128 -1552h-195l1127 1552h196z" />
    <glyph glyph-name="Euro" unicode="&#x20ac;" horiz-adv-x="1820" 
d="M1739 242q-159 -151 -315 -216t-365 -65q-168 0 -315.5 55.5t-256 160.5t-159.5 247h-207l29 147h143q-6 43 -6 93v45h-168l31 149h161q65 231 263.5 371.5t461.5 140.5q396 0 684 -285l-147 -137q-132 111 -262.5 166t-282.5 55q-166 0 -300 -86t-193 -225h780l-29 -149
h-788q-2 -14 -2 -41q0 -56 8 -97h756l-29 -147h-672q71 -123 206.5 -191.5t301.5 -68.5q157 0 282 54t248 177z" />
    <glyph glyph-name="uni2105" unicode="&#x2105;" horiz-adv-x="2541" 
d="M2421 344q0 -164 -124 -270.5t-302 -106.5q-185 0 -303.5 107.5t-118.5 269.5q0 151 119 256t299 105q104 0 187.5 -30t135.5 -81t79.5 -115t27.5 -135zM1907 1444l-1104 -1553h-158l1104 1553h158zM901 741q-177 -110 -352 -110q-184 0 -305 98.5t-121 259.5
q0 76 25.5 140t67 107t95.5 73.5t111.5 44.5t114.5 14q38 0 71.5 -4t65.5 -14.5t52.5 -17.5t50.5 -24.5t39.5 -23.5t39.5 -27.5t33 -23.5l-82 -121q-28 23 -44 34.5t-54 34t-82.5 33.5t-94.5 11q-119 0 -192.5 -71t-73.5 -159q0 -87 73.5 -154t199.5 -67q143 0 299 94z
M2277 344q0 91 -75 154t-205 63q-126 0 -203.5 -63t-77.5 -160q0 -92 74.5 -159.5t204.5 -67.5q129 0 205.5 69.5t76.5 163.5z" />
    <glyph glyph-name="afii61289" unicode="&#x2113;" horiz-adv-x="1400" 
d="M1202 147q-42 -40 -93.5 -75.5t-141.5 -69t-181 -33.5q-156 0 -239 92q-41 43 -59.5 109.5t-18.5 130.5v166q-26 -22 -78.5 -68t-79.5 -69q-38 64 -73 119q44 39 125.5 109t105.5 91v395q0 72 11 135.5t36.5 121.5t64 99.5t97 66t131.5 24.5q125 0 187.5 -74t62.5 -170
q0 -134 -70.5 -255t-208.5 -253q-21 -22 -106 -114v-291q0 -205 180 -205q126 0 258 125q69 -83 90 -107zM893 1208q0 64 -25 93.5t-63 29.5q-49 0 -80 -40t-41 -89.5t-10 -107.5v-289q24 31 86 102q133 172 133 301z" />
    <glyph glyph-name="trademark" unicode="&#x2122;" horiz-adv-x="1478" 
d="M1376 936h-149v336l-187 -307l-186 305v-334h-149v592h133l202 -344l207 344h129v-592zM631 1393h-195v-457h-151v457h-199v135h545v-135z" />
    <glyph glyph-name="Omega" unicode="&#x2126;" horiz-adv-x="1982" 
d="M1896 0h-690v184q67 39 119.5 75t119 95t110 119t74 144t30.5 174q0 89 -42 172.5t-121 151t-205 108.5t-281 41q-130 0 -248.5 -32.5t-211 -92.5t-147.5 -152t-55 -203q0 -90 32 -174t76.5 -144t112 -119t117 -92t113.5 -71v-184h-695v184h467q-88 40 -165.5 96
t-146.5 133.5t-109.5 182.5t-40.5 223q0 188 111.5 333t314 225.5t464.5 80.5q224 0 399.5 -53t282 -142.5t161 -201t54.5 -236.5q0 -143 -70 -274.5t-177.5 -222.5t-237.5 -144h485v-184z" />
    <glyph glyph-name="estimated" unicode="&#x212e;" horiz-adv-x="1665" 
d="M1649 807h-1237v-561q189 -180 438 -180q73 0 137.5 11.5t113.5 28.5t96.5 48t79 57.5t69 70t59 73t55.5 77.5q15 -8 43.5 -25.5t42.5 -25.5q-58 -93 -117 -160t-141.5 -126t-192 -89.5t-245.5 -30.5q-170 0 -317.5 68t-248.5 182t-158.5 266t-57.5 318q0 171 55.5 323
t156.5 266t253 180.5t333 66.5q178 0 328.5 -68.5t250 -184t153.5 -267.5t51 -318zM1307 895v485q-82 70 -202 122t-237 52q-132 0 -251.5 -45.5t-204.5 -130.5v-483h895z" />
    <glyph glyph-name="onethird" unicode="&#x2153;" horiz-adv-x="2541" 
d="M2275 221q0 -63 -36 -111t-88.5 -74t-122.5 -42.5t-125 -21.5t-109 -5q-131 0 -242 26t-219 91l97 145q88 -50 172 -69t188 -19q278 0 278 86q0 73 -116 90q-80 13 -230 13v162q44 0 117 6q176 13 176 75q0 29 -35.5 48t-72 24.5t-68.5 5.5q-94 0 -162.5 -16t-173.5 -60
l-86 156q126 61 208 79.5t214 18.5q60 0 121 -11.5t122 -37t99.5 -75.5t38.5 -117q0 -53 -23.5 -90t-66.5 -70q145 -78 145 -207zM1645 1470l-1129 -1552h-197l1127 1552h199zM461 547h-195v803h195v-803z" />
    <glyph glyph-name="uni2160" unicode="&#x2160;" 
d="M508 0h-221v1335h221v-1335z" />
    <glyph glyph-name="uni2164" unicode="&#x2164;" horiz-adv-x="1478" 
d="M1464 1335l-598 -1335h-264l-588 1335h242l479 -1085l486 1085h243z" />
    <glyph glyph-name="uni2169" unicode="&#x2169;" horiz-adv-x="1402" 
d="M1407 0h-283l-409 565l-428 -565h-285l569 729l-452 606h270l326 -440l332 440h276l-467 -606z" />
    <glyph glyph-name="partialdiff" unicode="&#x2202;" horiz-adv-x="1701" 
d="M1487 918q0 -203 -64 -365q-98 -272 -283 -426t-450 -154q-220 0 -360 127.5t-140 327.5q0 122 41 223t106.5 166.5t150.5 110.5t170.5 64.5t168.5 19.5q158 0 269.5 -59.5t160.5 -151.5h7q4 25 4 88q0 85 -24 161t-71 138.5t-126.5 99.5t-180.5 37q-75 0 -156 -24
t-145 -66q-53 131 -61 147q61 44 174 78.5t246 34.5q136 0 245 -47t177.5 -127.5t104.5 -183.5t36 -219zM1221 627q-23 91 -108.5 159t-223.5 68q-129 0 -236 -50t-172 -146.5t-65 -219.5q0 -126 82 -208.5t219 -82.5q173 0 309 130.5t195 349.5z" />
    <glyph glyph-name="Delta" unicode="&#x2206;" horiz-adv-x="1902" 
d="M1757 0h-1655v100q57 108 311.5 591.5t389.5 742.5h256q237 -455 698 -1334v-100zM1479 188q-357 674 -506 953q-12 23 -20 46.5t-13.5 47t-7.5 29.5h-10q-27 -85 -45 -117q-85 -160 -256 -479.5t-256 -479.5h1114z" />
    <glyph glyph-name="product" unicode="&#x220f;" horiz-adv-x="2148" 
d="M1915 -471h-229v1710h-1221v-1710h-229v1905h1679v-1905z" />
    <glyph glyph-name="summation" unicode="&#x2211;" horiz-adv-x="1849" 
d="M1847 -471h-1827v115q803 672 1008 845q-159 136 -476.5 409t-475.5 409v127h1708v-185h-1321q145 -126 433 -377.5t433 -377.5q-481 -413 -913 -781h1431v-184z" />
    <glyph glyph-name="minus" unicode="&#x2212;" horiz-adv-x="1820" 
d="M1397 383h-973v190h973v-190z" />
    <glyph glyph-name="uni2215" unicode="&#x2215;" horiz-adv-x="634" 
d="M989 1470l-1128 -1552h-195l1127 1552h196z" />
    <glyph glyph-name="uni2219" unicode="&#x2219;" horiz-adv-x="757" 
d="M522 727q0 -60 -41.5 -103.5t-101.5 -43.5t-101.5 43.5t-41.5 103.5t41.5 103.5t101.5 43.5t101.5 -43.5t41.5 -103.5z" />
    <glyph glyph-name="radical" unicode="&#x221a;" horiz-adv-x="1755" 
d="M1669 1493q-142 -295 -403.5 -843t-321.5 -675h-108q-74 119 -220 356.5t-219 356.5q-4 -3 -64.5 -38.5t-90.5 -55.5q-10 27 -45 113q135 75 278 151q68 -113 207 -338t207 -338q102 218 306.5 655.5t307.5 655.5h166z" />
    <glyph glyph-name="infinity" unicode="&#x221e;" horiz-adv-x="2398" 
d="M2234 608q0 -87 -29 -162.5t-85.5 -133.5t-146.5 -91t-204 -33q-163 0 -307 84t-248 226h-4q-103 -138 -254 -224t-309 -86q-99 0 -179 23t-133 61.5t-89 91t-52 109.5t-16 119q0 184 117 302t342 118q334 0 571 -310h4q100 130 241.5 220t305.5 90q223 0 349 -107.5
t126 -296.5zM2060 594q0 53 -15.5 98.5t-49 83.5t-93.5 60t-141 22q-130 0 -247.5 -72t-208.5 -186q91 -120 211.5 -188t252.5 -68q77 0 135 21t91 57.5t49 79.5t16 92zM1110 598q-86 123 -214 190.5t-255 67.5q-136 0 -211.5 -71.5t-75.5 -188.5q0 -114 82.5 -184
t210.5 -70q125 0 247.5 67.5t215.5 188.5z" />
    <glyph glyph-name="integral" unicode="&#x222b;" horiz-adv-x="1384" 
d="M1186 1327q-67 35 -156 35q-111 0 -169 -59t-58 -164v-1235q0 -92 -23.5 -164.5t-62.5 -119t-93.5 -77t-114 -43t-126.5 -12.5q-62 0 -132 12.5t-110 32.5q9 27 54 164q72 -35 157 -35q107 0 166.5 57.5t59.5 165.5v1235q0 213 107.5 314.5t297.5 101.5q74 0 143.5 -14.5
t110.5 -34.5q-8 -26 -25.5 -79.5t-25.5 -80.5z" />
    <glyph glyph-name="approxequal" unicode="&#x2248;" horiz-adv-x="1820" 
d="M1554 868q-82 -95 -171.5 -143.5t-213.5 -48.5q-134 0 -278 69q-148 74 -244 74q-120 0 -248 -147l-131 145q83 94 167.5 143.5t209.5 49.5q137 0 281 -70q148 -74 245 -74q125 0 250 148zM1554 399q-82 -95 -171.5 -143.5t-213.5 -48.5q-134 0 -278 69q-49 23 -77.5 35
t-77 25.5t-89.5 13.5q-123 0 -248 -149l-131 145q54 62 100 100.5t118.5 66.5t158.5 28q127 0 281 -70q148 -74 245 -74q125 0 250 148z" />
    <glyph glyph-name="notequal" unicode="&#x2260;" horiz-adv-x="1820" 
d="M1499 279h-706l-154 -252h-211l154 252h-260v190h385l174 283h-559v190h682l172 279h208l-170 -279h285v-190h-409l-172 -283h581v-190z" />
    <glyph glyph-name="lessequal" unicode="&#x2264;" horiz-adv-x="1820" 
d="M1499 0h-1177v190h1177v-190zM1499 291l-1177 438v162l1177 438v-203l-866 -313v-4l866 -313v-205z" />
    <glyph glyph-name="greaterequal" unicode="&#x2265;" horiz-adv-x="1820" 
d="M1499 0h-1177v190h1177v-190zM1499 729l-1177 -438v203l866 313v4l-866 315v203l1177 -438v-162z" />
    <glyph glyph-name="lozenge" unicode="&#x25ca;" horiz-adv-x="1726" 
d="M1606 717q-111 -120 -334.5 -358.5t-335.5 -358.5h-113q-120 126 -671 715q341 367 671 719h113q112 -120 335.5 -358.5t334.5 -358.5zM1403 715q-174 193 -522 573q-163 -174 -531 -573q284 -303 531 -574q232 257 522 574z" />
    <glyph glyph-name="A.alt" unicode="&#xe000;" horiz-adv-x="1705" 
d="M1665 0h-250l-219 506h-686l-156 -342q-31 -68 -49 -105t-54.5 -100.5t-68 -99t-82.5 -81t-105.5 -69.5t-129.5 -41.5t-162 -17.5h-129l10 184h99q59 0 109 11.5t86 24t72.5 48.5t56 57t51.5 80t44.5 85.5t47.5 103.5q1 3 2 4l583 1288h246zM1096 727l-242 535l-242 -535
h484z" />
    <glyph glyph-name="Dquote" unicode="&#xe001;" horiz-adv-x="2123" 
d="M2202 1339q0 -62 -33.5 -130t-78 -116.5t-81.5 -80.5t-51 -37l-25 29q38 22 114.5 110t76.5 143q0 33 -29 33h-61q-53 0 -96.5 37.5t-43.5 104.5q0 61 43 99t95 38q68 0 119 -62.5t51 -167.5zM1767 776q0 -213 -96 -390.5t-269.5 -281.5t-387.5 -104h-707v1536h707
q156 0 284.5 -46t214 -121t144 -175t84.5 -205t26 -213zM1546 774q0 244 -149 392.5t-383 148.5h-486v-1094h486q109 0 200.5 35.5t151 93t101.5 131t60.5 147.5t18.5 146z" />
    <glyph glyph-name="Oquote" unicode="&#xe002;" horiz-adv-x="2275" 
d="M2273 1339q0 -62 -33.5 -130t-77.5 -116.5t-81 -80.5t-51 -37l-25 29q38 22 114 110t76 143q0 33 -28 33h-62q-53 0 -96 37.5t-43 104.5q0 61 43 99t94 38q68 0 119 -62.5t51 -167.5zM1847 768q0 -176 -67 -327.5t-179.5 -254t-262.5 -161t-314 -58.5t-314 58
t-262.5 160.5t-179.5 254t-67 328.5q0 176 67 327.5t179.5 254t262.5 161t314 58.5t314 -58t262.5 -160.5t179.5 -254t67 -328.5zM1626 768q0 118 -45.5 224.5t-124.5 184.5t-191.5 124.5t-240.5 46.5t-240.5 -46.5t-191.5 -124.5t-124.5 -184.5t-45.5 -224.5t45.5 -224.5
t124.5 -184.5t191.5 -124.5t240.5 -46.5t240.5 46.5t191.5 124.5t124.5 184.5t45.5 224.5z" />
    <glyph glyph-name="ampersand.alt" unicode="&#xe003;" horiz-adv-x="1781" 
d="M1645 0h-302l-96 104q-210 -137 -463 -137q-66 0 -134.5 12.5t-134.5 36t-124 61.5t-101.5 86t-69 111.5t-25.5 135.5q0 55 15 103.5t38.5 84.5t59.5 68.5t69 54t77.5 42.5t74 32t69.5 24q-3 4 -34 42t-46.5 60t-32 61.5t-16.5 74.5q0 94 62.5 172.5t162 121t211.5 42.5
q196 0 428 -119l-98 -191q-146 61 -211 76q-52 12 -98 12q-96 0 -166 -33.5t-70 -72.5q0 -9 22 -36.5t40 -45.5l518 -569q57 63 178 233l184 -121q-47 -81 -86.5 -134t-124.5 -146zM1090 279l-332 366q-78 -10 -155.5 -44t-132 -89t-54.5 -113q0 -95 102.5 -153t259.5 -58
q176 0 312 91z" />
    <glyph glyph-name="c.superior" unicode="&#xe004;" horiz-adv-x="985" 
d="M989 748q-97 -59 -176 -88q-154 -56 -326 -56q-232 0 -380 127.5t-148 335.5q0 132 71 240t192 168.5t265 60.5q76 0 148.5 -14t120.5 -31t100.5 -46t75 -45t57.5 -42l-96 -131q-220 135 -406 135q-161 0 -257.5 -84.5t-96.5 -210.5q0 -53 22 -103.5t64 -92.5t112 -67.5
t156 -25.5q232 0 422 111z" />
    <glyph glyph-name="capostraphe" unicode="&#xe005;" horiz-adv-x="1630" 
d="M332 1339q0 -62 -33.5 -130t-78 -116.5t-81.5 -80.5t-51 -37l-25 29q38 22 114.5 110t76.5 143q0 33 -29 33h-61q-53 0 -96 37.5t-43 104.5q0 61 43 99t94 38q68 0 119 -62.5t51 -167.5zM1499 133q-107 -79 -259 -122.5t-284 -43.5q-135 0 -252 36.5t-206.5 106
t-141 177.5t-51.5 243q0 109 38 202.5t102 158.5t147 112t172.5 69t179.5 22q74 0 142 -12.5t117.5 -29.5t100.5 -44.5t82.5 -48.5t72.5 -50q15 -11 22 -16l-125 -186q-39 32 -69.5 53t-87.5 53.5t-124.5 50t-140.5 17.5q-95 0 -175 -31.5t-131.5 -82.5t-80.5 -114.5
t-29 -128.5q0 -49 16 -96.5t51.5 -92.5t85.5 -79.5t124.5 -55t162.5 -20.5q129 0 248.5 45t196.5 105z" />
    <glyph glyph-name="nd" unicode="&#xe006;" horiz-adv-x="2238" 
d="M2130 870q0 -108 -41.5 -194.5t-113 -140.5t-164.5 -82.5t-199 -28.5h-473v911h473q99 0 191 -30.5t165.5 -87t117.5 -147t44 -200.5zM850 424h-160l-561 618v-618h-174v911h154l567 -626v626h174v-911zM1956 870q0 139 -96 220t-248 81h-299v-583h299q92 0 168.5 30.5
t126 96t49.5 155.5z" />
    <glyph glyph-name="orn.001" unicode="&#xe007;" horiz-adv-x="2654" 
d="M2527 537q0 -70 -20.5 -142.5t-66 -143.5t-110 -126.5t-160 -90t-208.5 -34.5q-78 0 -155 20t-138.5 49.5t-133 79.5t-122 92.5t-121.5 106.5q-77 69 -125.5 111t-122.5 97.5t-130.5 86.5t-124.5 53.5t-130 22.5q-167 0 -286 -116.5t-119 -270.5q0 -115 56 -174.5
t134 -59.5q67 0 107 60q-19 4 -37 12t-38.5 24t-33 45t-12.5 66q0 44 34.5 77.5t72.5 33.5q82 0 122.5 -46t40.5 -118q0 -91 -76.5 -171.5t-174.5 -80.5q-87 0 -152.5 34.5t-100.5 90.5t-52 117t-17 125q0 69 20.5 141t66 143t110 127t160 90.5t208.5 34.5q62 0 120.5 -10.5
t106.5 -25.5t106.5 -49t100.5 -61.5t109.5 -83.5t112 -95.5t129.5 -116.5q74 -67 124 -107.5t118 -84.5t136 -64.5t140 -20.5q83 0 158.5 32t129.5 85t85.5 123.5t31.5 144.5q0 116 -55.5 176t-134.5 60q-68 0 -105 -62q18 -4 35.5 -12t38 -24t33 -44t12.5 -65
q0 -44 -34 -78.5t-72 -34.5q-81 0 -122.5 46t-41.5 118q0 92 77 173t177 81q70 0 126 -23.5t91 -60.5t59 -86t33.5 -97.5t9.5 -98.5z" />
    <glyph glyph-name="orn.002" unicode="&#xe008;" horiz-adv-x="2654" 
d="M2527 367q0 -50 -9.5 -99t-33.5 -98.5t-59.5 -86.5t-92 -60t-126.5 -23q-98 0 -175 80.5t-77 171.5q0 72 41 118t123 46q38 0 72 -33.5t34 -77.5q0 -37 -12.5 -66t-33 -45t-38.5 -24t-37 -12q40 -60 107 -60q78 0 134 59.5t56 174.5q0 154 -119 270.5t-286 116.5
q-62 0 -130 -22.5t-124.5 -53.5t-130.5 -86.5t-122.5 -97.5t-125.5 -111q-71 -64 -121.5 -106.5t-122 -92.5t-133 -79.5t-138.5 -49.5t-155 -20q-113 0 -208.5 34.5t-160 90t-110 126.5t-66 143.5t-20.5 142.5q0 50 9.5 98.5t33.5 97.5t59 86t91 60.5t126 23.5
q100 0 177 -81t77 -173q0 -72 -41 -118t-122 -46q-38 0 -72.5 34.5t-34.5 78.5q0 68 38 102t81 43q-37 62 -105 62q-79 0 -134.5 -60t-55.5 -176q0 -74 31.5 -144.5t85.5 -123.5t129.5 -85t158.5 -32q58 0 116.5 15.5t105.5 38.5t103 63t96 74t98 86q75 68 114 102.5
t100 86.5t97.5 78t88.5 60.5t92 51t89.5 34t98.5 23.5t104 6q113 0 208.5 -34.5t160 -90.5t110 -127t66 -143t20.5 -141z" />
    <glyph glyph-name="r.period" unicode="&#xe009;" horiz-adv-x="1138" 
d="M1327 758q0 -62 -41 -103t-102 -41q-62 0 -103 41t-41 103q0 61 41 102t103 41t102.5 -40.5t40.5 -102.5zM969 625h-205l-246 364h-344v-364h-174v911h612q46 0 87.5 -6.5t85 -25t74.5 -47.5t51 -78t20 -113q0 -54 -15.5 -97.5t-35.5 -68.5t-54 -47.5t-55 -31t-55 -20.5z
M756 1266q0 58 -46.5 82t-146.5 24h-389v-219h389q193 0 193 113z" />
    <glyph glyph-name="rd" unicode="&#xe00a;" horiz-adv-x="2314" 
d="M2220 870q0 -108 -41.5 -194.5t-113 -140.5t-164.5 -82.5t-199 -28.5h-473v911h473q99 0 191 -30.5t165.5 -87t117.5 -147t44 -200.5zM989 424h-205l-245 364h-344v-364h-175v911h613q46 0 87.5 -6.5t84.5 -25t74 -47.5t51 -78t20 -113q0 -45 -9.5 -82.5t-29 -64
t-37.5 -45t-47.5 -33.5t-46 -22t-45.5 -17zM2046 870q0 139 -96 220t-248 81h-299v-583h299q92 0 168.5 30.5t126 96t49.5 155.5zM776 1065q0 58 -46 82t-146 24h-389v-219h389q192 0 192 113z" />
    <glyph glyph-name="rs.period" unicode="&#xe00b;" horiz-adv-x="2351" 
d="M2517 758q0 -62 -41 -103t-102 -41q-62 0 -103 41t-41 103q0 61 41 102t103 41t102.5 -40.5t40.5 -102.5zM2109 909q0 -129 -124.5 -212t-348.5 -83q-99 0 -175.5 11t-142 38t-99.5 45.5t-99 59.5l92 147q5 -3 32.5 -20t35.5 -21t34.5 -18.5t41 -19t42.5 -15t52.5 -14.5
t57.5 -9.5t70 -7.5t79 -2q133 0 205.5 34.5t72.5 92.5q0 51 -46.5 71.5t-143.5 27.5l-275 20q-129 9 -204.5 71t-75.5 167q0 38 14.5 74.5t48.5 73t85 64.5t131.5 45t179.5 17q90 0 161 -11t126 -35.5t75.5 -36.5t61.5 -40l-97 -141q-122 90 -338 90q-123 0 -198.5 -32
t-75.5 -70q0 -22 20.5 -39t67.5 -21l311 -24q346 -26 346 -277zM969 625h-205l-246 364h-344v-364h-174v911h612q46 0 87.5 -6.5t85 -25t74.5 -47.5t51 -78t20 -113q0 -54 -15.5 -97.5t-35.5 -68.5t-54 -47.5t-55 -31t-55 -20.5zM756 1266q0 58 -46.5 82t-146.5 24h-389
v-219h389q193 0 193 113z" />
    <glyph glyph-name="s.period" unicode="&#xe00c;" horiz-adv-x="1214" 
d="M1307 758q0 -62 -41.5 -103t-102.5 -41t-102 41t-41 103t41 102.5t102 40.5q62 0 103 -41t41 -102zM899 909q0 -129 -124.5 -212t-348.5 -83q-99 0 -175.5 11t-142 38t-99.5 45.5t-99 59.5l92 147q6 -4 32.5 -20t35.5 -21t34.5 -18.5t40.5 -18.5t42.5 -15.5t52 -14.5
t57.5 -9.5t70 -7.5t79 -2q133 0 206 34.5t73 92.5q0 51 -46.5 71.5t-143.5 27.5l-275 20q-129 9 -204.5 71t-75.5 167q0 48 24 93.5t74.5 87.5t143.5 67.5t216 25.5q90 0 161 -11t126 -35.5t75.5 -36.5t61.5 -40l-96 -141q-122 90 -338 90q-123 0 -198.5 -32t-75.5 -70
q0 -22 20.5 -39t67.5 -21l311 -24q346 -26 346 -277z" />
    <glyph glyph-name="sapostraphe" unicode="&#xe00d;" horiz-adv-x="1630" 
d="M348 1339q0 -62 -33.5 -130t-78 -116.5t-81.5 -80.5t-51 -37l-24 29q38 22 114 110t76 143q0 33 -28 33h-62q-53 0 -96 37.5t-43 104.5q0 61 43 99t94 38q68 0 119 -62.5t51 -167.5zM1497 315q0 -153 -125.5 -250.5t-374.5 -97.5q-404 0 -645 185l99 190
q250 -162 546 -162q45 0 90.5 6.5t92 21.5t75.5 45.5t29 72.5q0 40 -27.5 66t-60.5 34.5t-72 9.5l-317 10q-186 6 -286.5 98.5t-100.5 223.5q0 63 25 118t80 103.5t155.5 76.5t237.5 28q50 0 100 -5t88.5 -12t80 -19t68 -21t60 -24.5t47.5 -22.5t40 -21t28 -15l-97 -188
q-225 115 -448 115q-46 0 -87.5 -5.5t-80 -18.5t-61.5 -37t-23 -58q0 -29 18.5 -50t49 -31.5t60 -15.5t60.5 -6l277 -10q189 -6 294 -89t105 -245z" />
    <glyph glyph-name="th" unicode="&#xe00e;" horiz-adv-x="2162" 
d="M1917 424h-174v379h-551v-379h-174v911h174v-356h551v356h174v-911zM766 1161h-346v-737h-174v737h-346v174h866v-174z" />
    <glyph glyph-name="s_t" unicode="&#xfb06;" horiz-adv-x="1972" 
d="M1901 1161h-347v-737h-174v737h-346v174h867v-174zM842 709q0 -129 -124.5 -212t-348.5 -83q-80 0 -149 9.5t-114 20.5t-97.5 35.5t-78 39.5t-77.5 48l92 148q6 -4 32.5 -20t35.5 -21t34.5 -18.5t40.5 -18.5t42.5 -15.5t52 -14.5t57.5 -9.5t70 -7.5t79 -2q133 0 206 34.5
t73 92.5q0 50 -47 70.5t-144 27.5l-274 21q-129 9 -205 70.5t-76 166.5q0 38 14.5 74.5t48.5 73.5t85 64.5t131.5 45t179.5 17.5q90 0 161 -11t126 -35.5t75.5 -36.5t61.5 -40l-96 -142q-122 90 -338 90q-123 0 -199 -32.5t-76 -69.5q0 -51 88 -59l312 -25q346 -26 346 -276
z" />
  </font>
</defs>
</svg>
