<?xml version="1.0" standalone="no"?>
<!DOCTYPE svg PUBLIC "-//W3C//DTD SVG 1.1//EN" "http://www.w3.org/Graphics/SVG/1.1/DTD/svg11.dtd" >
<svg xmlns="http://www.w3.org/2000/svg" xmlns:xlink="http://www.w3.org/1999/xlink" version="1.1">
<metadata>
Created by FontForge 20170731 at Thu Jul 22 01:45:01 2021
 By Aleksey,,,
Copyright (c) 2000, 2001 Adobe Systems Incorporated. All Rights Reserved. U.S. Patent Des. 318,290 and 327,903.
</metadata>
<defs>
<font id="AGaramondPro-Regular" horiz-adv-x="737" >
  <font-face 
    font-family="Adobe Garamond Pro"
    font-weight="400"
    font-stretch="normal"
    units-per-em="2048"
    panose-1="2 2 5 2 6 5 6 2 4 3"
    ascent="1485"
    descent="-563"
    x-height="813"
    cap-height="1358"
    bbox="-375 -725 2773.08 1878"
    underline-thickness="102"
    underline-position="-307"
    unicode-range="U+0020-FB04"
  />
<missing-glyph horiz-adv-x="1024" 
d="M0 0v1434h1024v-1434h-1024zM512 809l348 522h-696zM573 717l349 -522v1044zM164 102h696l-348 523zM102 1239v-1044l349 522z" />
    <glyph glyph-name="T_h" unicode="Th" horiz-adv-x="2181" 
d="M606 307v916q0 48 -8 56.5t-53 8.5h-133q-197 0 -252 -51q-23 -21 -41 -47t-27 -43t-24 -51q-12 -9 -30 -3.5t-24 17.5q49 138 78 305q5 3 19.5 3.5t19.5 -3.5q3 -18 13.5 -30.5t22 -19t36 -9.5t40.5 -3.5t50 -0.5h6.5h5.5h850q141 0 152 28v29l137 55q14 0 20 -12
q-6 -183 -6 -254v-430q0 -34 8 -39q139 107 277 107q137 0 200.5 -73.5t63.5 -191.5v-342q0 -114 12 -143t66 -35l55 -6q10 -8 8.5 -27t-12.5 -24q-111 6 -205 6q-107 0 -190 -6q-11 5 -12.5 24t8.5 27l41 6q20 3 32 6.5t21.5 13t13.5 18t6.5 32.5t3 44t0.5 64v293
q0 101 -49 160t-145 59q-94 0 -160 -55q-29 -24 -36 -42t-7 -71v-344q0 -113 12 -142t66 -36l43 -6q10 -6 8.5 -26t-12.5 -25q-91 6 -193 6q-101 0 -200 -6q-11 5 -12.5 24t8.5 27l51 6q55 6 66.5 34.5t11.5 143.5v916q0 40 -7.5 64.5t-23.5 41.5t-52.5 24.5t-81 10
t-122.5 2.5h-186q-45 0 -52.5 -8.5t-7.5 -60.5v-912q0 -63 0.5 -94t5 -65t11 -47t21.5 -26t34 -17t51 -7l66 -6q9 -6 6.5 -26t-11.5 -25q-176 6 -268 6q-88 0 -284 -6q-10 5 -10.5 24t10.5 27l73 6q37 3 58.5 10.5t36.5 21t21 45.5t8.5 70t2.5 109z" />
    <glyph glyph-name="T_h.caron" unicode="&#x164;h" horiz-adv-x="2181" 
d="M606 307v916q0 48 -8 56.5t-53 8.5h-133q-197 0 -252 -51q-23 -21 -41 -47t-27 -43t-24 -51q-12 -9 -30 -3.5t-24 17.5q49 138 78 305q5 3 19.5 3.5t19.5 -3.5q3 -18 13.5 -30.5t22 -19t36 -9.5t40.5 -3.5t50 -0.5h6.5h5.5h850q141 0 152 28v29l137 55q14 0 20 -12
q-6 -183 -6 -254v-430q0 -34 8 -39q139 107 277 107q137 0 200.5 -73.5t63.5 -191.5v-342q0 -114 12 -143t66 -35l55 -6q10 -8 8.5 -27t-12.5 -24q-111 6 -205 6q-107 0 -190 -6q-11 5 -12.5 24t8.5 27l41 6q20 3 32 6.5t21.5 13t13.5 18t6.5 32.5t3 44t0.5 64v293
q0 101 -49 160t-145 59q-94 0 -160 -55q-29 -24 -36 -42t-7 -71v-344q0 -113 12 -142t66 -36l43 -6q10 -6 8.5 -26t-12.5 -25q-91 6 -193 6q-101 0 -200 -6q-11 5 -12.5 24t8.5 27l51 6q55 6 66.5 34.5t11.5 143.5v916q0 40 -7.5 64.5t-23.5 41.5t-52.5 24.5t-81 10
t-122.5 2.5h-186q-45 0 -52.5 -8.5t-7.5 -60.5v-912q0 -63 0.5 -94t5 -65t11 -47t21.5 -26t34 -17t51 -7l66 -6q9 -6 6.5 -26t-11.5 -25q-176 6 -268 6q-88 0 -284 -6q-10 5 -10.5 24t10.5 27l73 6q37 3 58.5 10.5t36.5 21t21 45.5t8.5 70t2.5 109zM639 1460l-252 232
q0 14 9 27.5t20 13.5l233 -117q21 -12 31.5 -11.5t34.5 11.5l237 117q9 -1 16 -14t7 -27l-250 -232q-41 -38 -86 0z" />
    <glyph glyph-name="T_h.commaaccent" unicode="&#x162;h" horiz-adv-x="2181" 
d="M606 307v916q0 48 -8 56.5t-53 8.5h-133q-197 0 -252 -51q-23 -21 -41 -47t-27 -43t-24 -51q-12 -9 -30 -3.5t-24 17.5q49 138 78 305q5 3 19.5 3.5t19.5 -3.5q3 -18 13.5 -30.5t22 -19t36 -9.5t40.5 -3.5t50 -0.5h6.5h5.5h850q141 0 152 28v29l137 55q14 0 20 -12
q-6 -183 -6 -254v-430q0 -34 8 -39q139 107 277 107q137 0 200.5 -73.5t63.5 -191.5v-342q0 -114 12 -143t66 -35l55 -6q10 -8 8.5 -27t-12.5 -24q-111 6 -205 6q-107 0 -190 -6q-11 5 -12.5 24t8.5 27l41 6q20 3 32 6.5t21.5 13t13.5 18t6.5 32.5t3 44t0.5 64v293
q0 101 -49 160t-145 59q-94 0 -160 -55q-29 -24 -36 -42t-7 -71v-344q0 -113 12 -142t66 -36l43 -6q10 -6 8.5 -26t-12.5 -25q-91 6 -193 6q-101 0 -200 -6q-11 5 -12.5 24t8.5 27l51 6q55 6 66.5 34.5t11.5 143.5v916q0 40 -7.5 64.5t-23.5 41.5t-52.5 24.5t-81 10
t-122.5 2.5h-186q-45 0 -52.5 -8.5t-7.5 -60.5v-912q0 -63 0.5 -94t5 -65t11 -47t21.5 -26t34 -17t51 -7l66 -6q9 -6 6.5 -26t-11.5 -25q-176 6 -268 6q-88 0 -284 -6q-10 5 -10.5 24t10.5 27l73 6q37 3 58.5 10.5t36.5 21t21 45.5t8.5 70t2.5 109zM651 -119q51 0 94 -45
t43 -125q0 -102 -62.5 -166.5t-162.5 -95.5q-11 6 -14 32t4 32q48 16 88.5 52.5t40.5 90.5q0 18 -7 33t-20 26t-22.5 17.5t-22.5 13.5l-14 6q-31 16 -31 51q0 31 23.5 54.5t62.5 23.5z" />
    <glyph glyph-name="f_f_j" unicode="ffj" horiz-adv-x="1601" 
d="M195 229v433q0 42 -5.5 50.5t-35.5 8.5h-72q-9 6 -10.5 18t4.5 21l88 43q31 15 31 41q0 65 16.5 152.5t52.5 164.5q51 106 145.5 180t231.5 74q86 0 148.5 -29t87.5 -63q46 57 132.5 99t194.5 42q104 0 179 -47t75 -112q0 -41 -27.5 -62.5t-56.5 -21.5q-34 0 -53 30
q-41 69 -94 102t-99 33q-119 0 -176 -123t-57 -370v-23q0 -40 6.5 -51.5t32.5 -11.5h229q71 0 152.5 9t116.5 22q13 0 20 -11q-8 -148 -8 -256v-469q0 -215 -43 -319t-120 -183.5t-191 -150.5q-18 3 -26.5 17.5t-2.5 29.5q73 37 121 92q110 128 110 484v514q0 92 -17 113.5
t-85 21.5h-256q-25 0 -32 -12.5t-7 -51.5v-428q0 -114 12 -144t66 -34l65 -6q10 -8 8.5 -27t-12.5 -24q-126 6 -215 6q-105 0 -196 -6q-11 5 -13 24t8 27l48 6q55 7 66 35t11 143v433q0 42 -5.5 50.5t-35.5 8.5h-321q-26 0 -30.5 -8.5t-4.5 -50.5v-433q0 -114 12 -144
t66 -34l74 -6q10 -8 8.5 -27t-12.5 -24q-138 6 -224 6q-104 0 -196 -6q-11 5 -12.5 24t8.5 27l47 6q55 7 66.5 35.5t11.5 142.5zM406 807h307q12 0 21 11t9 26q0 181 54 352q-15 55 -72 101t-133 46q-54 0 -95.5 -19t-67.5 -55.5t-43.5 -78.5t-25.5 -99.5t-11 -106
t-3 -110.5v-10q0 -42 8 -49.5t52 -7.5z" />
    <glyph glyph-name="f_j" unicode="fj" horiz-adv-x="1052" 
d="M195 229v433q0 42 -5.5 50.5t-35.5 8.5h-72q-9 6 -10.5 18t4.5 21l88 43q31 15 31 41q0 198 63 344q14 34 35.5 68.5t57 73t78 67.5t101.5 48t125 19q104 0 179 -47t75 -112q0 -41 -27.5 -62.5t-56.5 -21.5q-34 0 -53 30q-41 69 -93.5 102t-98.5 33q-234 0 -234 -493v-23
q0 -40 6.5 -51.5t32.5 -11.5h229q71 0 152.5 9t116.5 22q13 0 20 -11q-8 -148 -8 -256v-469q0 -215 -43 -319t-120 -183.5t-191 -150.5q-18 3 -26.5 17.5t-2.5 29.5q73 37 121 92q110 128 110 484v514q0 49 -3 74t-15.5 40t-30 18t-53.5 3h-256q-25 0 -32 -12.5t-7 -51.5
v-428q0 -114 12 -144t66 -34l65 -6q10 -8 8.5 -27t-12.5 -24q-126 6 -215 6q-104 0 -196 -6q-11 5 -12.5 24t8.5 27l47 6q55 7 66.5 35.5t11.5 142.5z" />
    <glyph glyph-name="ff" unicode="ff" horiz-adv-x="1142" 
d="M195 229v433q0 42 -5.5 50.5t-35.5 8.5h-72q-9 6 -10.5 18t4.5 21l88 43q31 15 31 41q0 65 16.5 152.5t52.5 164.5q51 106 145.5 180t231.5 74q151 0 231 -90q41 53 126.5 96t179.5 43q81 0 137.5 -34.5t56.5 -88.5q0 -30 -22.5 -51.5t-51.5 -21.5q-26 0 -49 26
q-77 90 -159 90q-102 0 -148 -110q-47 -118 -47 -350v-60q0 -42 4.5 -49.5t30.5 -7.5h233q17 -15 10.5 -47.5t-24.5 -38.5h-219q-26 0 -30.5 -8.5t-4.5 -50.5v-433q0 -114 12 -144t66 -34l65 -6q10 -8 8.5 -27t-12.5 -24q-126 6 -215 6q-105 0 -196 -6q-11 5 -13 24t8 27
l48 6q55 7 66 35t11 143v433q0 42 -5.5 50.5t-35.5 8.5h-321q-26 0 -30.5 -8.5t-4.5 -50.5v-433q0 -114 12 -144t66 -34l74 -6q10 -8 8.5 -27t-12.5 -24q-138 6 -224 6q-104 0 -196 -6q-11 5 -12.5 24t8.5 27l47 6q55 7 66.5 35.5t11.5 142.5zM406 807h307q12 0 21 11t9 26
q0 177 52 354q-15 54 -71 99.5t-132 45.5q-54 0 -95.5 -19t-67.5 -55.5t-43.5 -78.5t-25.5 -99.5t-11 -106t-3 -110.5v-10q0 -42 8 -49.5t52 -7.5z" />
    <glyph glyph-name="fi" unicode="fi" horiz-adv-x="1069" 
d="M195 229v433q0 42 -5.5 50.5t-35.5 8.5h-72q-9 6 -10.5 18t4.5 21l88 43q31 15 31 41q0 198 63 344q14 34 35.5 68.5t57 73t78 67.5t101.5 48t125 19q104 0 179 -47t75 -112q0 -41 -27.5 -62.5t-56.5 -21.5q-34 0 -53 30q-41 69 -93.5 102t-98.5 33q-234 0 -234 -493v-23
q0 -40 6.5 -51.5t32.5 -11.5h229q71 0 152.5 9t116.5 22q13 0 20 -11q-8 -148 -8 -256v-342q0 -113 12 -142t66 -36l43 -6q10 -8 8.5 -27t-12.5 -24q-92 6 -193 6q-107 0 -192 -6q-11 5 -12.5 24t8.5 27l43 6q55 7 66 35t11 143v357q0 49 -3 74t-15.5 40t-30 18t-53.5 3
h-256q-25 0 -32 -12.5t-7 -51.5v-428q0 -114 12 -144t66 -34l65 -6q10 -8 8.5 -27t-12.5 -24q-126 6 -215 6q-104 0 -196 -6q-11 5 -12.5 24t8.5 27l47 6q55 7 66.5 35.5t11.5 142.5z" />
    <glyph glyph-name="fl" unicode="fl" horiz-adv-x="1069" 
d="M705 721h-320q-28 0 -33.5 -8.5t-5.5 -55.5v-428q0 -114 12 -144t66 -34l63 -6q10 -8 8.5 -27t-12.5 -24q-123 6 -213 6q-104 0 -196 -6q-11 5 -12.5 24t8.5 27l47 6q55 7 66.5 35.5t11.5 142.5v433q0 42 -5.5 50.5t-35.5 8.5h-72q-9 6 -10.5 18t4.5 21l88 43
q31 15 31 41q0 110 11 193t44 163q19 46 49 89t76 84t113 66t145 25q105 0 190 -53l54 53q16 0 24 -8q-6 -135 -6 -305v-922q0 -113 12 -142t66 -36l49 -6q10 -8 8.5 -27t-12.5 -24q-102 6 -199 6q-105 0 -196 -6q-11 5 -13 24t8 27l48 6q55 7 66 35t11 143v451
q0 27 -5.5 34t-32.5 7zM743 848v330q0 110 -34 155q-21 26 -54 46t-71 20q-47 0 -84.5 -18.5t-62 -47t-42.5 -72.5t-27 -84t-14.5 -93t-6.5 -89t-1 -82v-63q0 -30 6 -36.5t33 -6.5h320q24 0 31 7t7 34z" />
    <glyph glyph-name="ffi" unicode="ffi" horiz-adv-x="1617" 
d="M195 229v433q0 42 -5.5 50.5t-35.5 8.5h-72q-9 6 -10.5 18t4.5 21l88 43q31 15 31 41q0 65 16.5 152.5t52.5 164.5q51 106 145.5 180t231.5 74q86 0 148.5 -29t87.5 -63q46 57 132.5 99t194.5 42q104 0 179 -47t75 -112q0 -41 -27.5 -62.5t-56.5 -21.5q-34 0 -53 30
q-41 69 -94 102t-99 33q-119 0 -176 -123t-57 -370v-23q0 -40 6.5 -51.5t32.5 -11.5h229q71 0 152.5 9t116.5 22q13 0 20 -11q-8 -148 -8 -256v-342q0 -113 12 -142t66 -36l43 -6q10 -8 8.5 -27t-12.5 -24q-91 6 -193 6q-106 0 -192 -6q-11 5 -13 24t8 27l43 6
q55 7 66.5 35.5t11.5 142.5v357q0 92 -17 113.5t-85 21.5h-256q-25 0 -32 -12.5t-7 -51.5v-428q0 -114 12 -144t66 -34l65 -6q10 -8 8.5 -27t-12.5 -24q-126 6 -215 6q-105 0 -196 -6q-11 5 -13 24t8 27l48 6q55 7 66 35t11 143v433q0 42 -5.5 50.5t-35.5 8.5h-321
q-26 0 -30.5 -8.5t-4.5 -50.5v-433q0 -114 12 -144t66 -34l74 -6q10 -8 8.5 -27t-12.5 -24q-138 6 -224 6q-104 0 -196 -6q-11 5 -12.5 24t8.5 27l47 6q55 7 66.5 35.5t11.5 142.5zM406 807h307q12 0 21 11t9 26q0 181 54 352q-15 55 -72 101t-133 46q-54 0 -95.5 -19
t-67.5 -55.5t-43.5 -78.5t-25.5 -99.5t-11 -106t-3 -110.5v-10q0 -42 8 -49.5t52 -7.5z" />
    <glyph glyph-name="ffl" unicode="ffl" horiz-adv-x="1615" 
d="M195 229v433q0 42 -5.5 50.5t-35.5 8.5h-72q-9 6 -10.5 18t4.5 21l88 43q31 15 31 41q0 65 16.5 152.5t52.5 164.5q51 106 145.5 180t231.5 74q151 0 231 -90q42 54 125 96.5t177 42.5q113 0 198 -53l53 53q17 0 25 -8q-6 -135 -6 -305v-922q0 -113 12 -142t66 -36l47 -6
q10 -8 8.5 -27t-12.5 -24q-99 6 -197 6q-106 0 -192 -6q-11 5 -13 24t8 27l43 6q55 7 66.5 35.5t11.5 142.5v451q0 27 -6 34t-33 7h-319q-28 0 -33.5 -8.5t-5.5 -55.5v-428q0 -114 12 -144t66 -34l65 -6q10 -8 8.5 -27t-12.5 -24q-126 6 -215 6q-105 0 -196 -6q-11 5 -13 24
t8 27l48 6q55 7 66 35t11 143v433q0 42 -5.5 50.5t-35.5 8.5h-321q-26 0 -30.5 -8.5t-4.5 -50.5v-433q0 -114 12 -144t66 -34l74 -6q10 -8 8.5 -27t-12.5 -24q-138 6 -224 6q-104 0 -196 -6q-11 5 -12.5 24t8.5 27l47 6q55 7 66.5 35.5t11.5 142.5zM406 807h307q12 0 21 11
t9 26q0 177 52 354q-15 54 -71 99.5t-132 45.5q-54 0 -95.5 -19t-67.5 -55.5t-43.5 -78.5t-25.5 -99.5t-11 -106t-3 -110.5v-10q0 -42 8 -49.5t52 -7.5zM1292 848v330q0 109 -35 155q-51 66 -124 66q-47 0 -84.5 -18.5t-62 -47t-42.5 -72.5t-27 -84t-14.5 -93t-6.5 -89
t-1 -82v-63q0 -30 6 -36.5t33 -6.5h319q24 0 31.5 7t7.5 34z" />
    <glyph glyph-name=".notdef" horiz-adv-x="1024" 
d="M0 0v1434h1024v-1434h-1024zM512 809l348 522h-696zM573 717l349 -522v1044zM164 102h696l-348 523zM102 1239v-1044l349 522z" />
    <glyph glyph-name=".null" horiz-adv-x="0" 
 />
    <glyph glyph-name="nonmarkingreturn" horiz-adv-x="682" 
 />
    <glyph glyph-name="space" unicode=" " horiz-adv-x="512" 
 />
    <glyph glyph-name="space" unicode="&#xa0;" horiz-adv-x="512" 
 />
    <glyph glyph-name="exclam" unicode="!" horiz-adv-x="450" 
d="M225 -29q-46 0 -80 31t-34 82q0 53 32.5 87t81.5 34q51 0 83 -35t32 -86q0 -50 -31.5 -81.5t-83.5 -31.5zM225 1323q54 0 77.5 -11.5t23.5 -47.5q0 -20 -15 -183l-59 -661q-9 -9 -27.5 -9t-25.5 9l-60 661q-14 153 -14 183q0 36 23 47.5t77 11.5z" />
    <glyph glyph-name="quotedbl" unicode="&#x22;" horiz-adv-x="827" 
d="M250 1434q48 0 68 -9.5t20 -40.5q0 -7 -10 -79l-54 -330q-24 -25 -49 0l-53 330q-10 72 -10 79q0 31 20 40.5t68 9.5zM578 1434q48 0 68 -9.5t20 -40.5l-11 -79l-53 -330q-24 -25 -49 0l-53 330l-11 79q0 31 20.5 40.5t68.5 9.5z" />
    <glyph glyph-name="numbersign" unicode="#" horiz-adv-x="1024" 
d="M684 825h-240l-90 -331h242zM979 825h-209l-90 -331h203l-31 -103h-201l-104 -385h-80l102 385h-243l-105 -385h-78l103 385h-228l31 103h223l88 331h-229l33 103h223l92 350h88l-94 -350h238l92 350h90l-94 -350h207z" />
    <glyph glyph-name="dollar" unicode="$" horiz-adv-x="1024" 
d="M514 784l55 467q-74 -1 -125.5 -22t-76 -56.5t-34 -69.5t-9.5 -73q0 -142 190 -246zM557 584l-63 -521q53 -1 99.5 11t84.5 37.5t60 70t22 103.5q0 40 -6.5 73t-26 73t-62.5 79t-108 74zM666 1468l-21 -159q72 -2 205 -31q14 -36 28 -106.5t15 -124.5q-5 -11 -20.5 -13.5
t-24.5 6.5q-12 28 -18.5 42.5t-25 45.5t-38.5 49.5t-53.5 38.5t-73.5 29l-61 -495l86 -45q245 -129 245 -351q0 -156 -115 -255t-309 -99l-22 -193q-12 -9 -34.5 -9t-33.5 9l25 197q-152 9 -250 66q-25 29 -41 104t-16 164q7 10 20.5 13t24.5 -7q12 -39 30 -75.5t48.5 -79
t79.5 -74.5t110 -45l68 546l-78 39q-98 49 -164 135t-66 193q0 139 104.5 231.5t287.5 96.5l18 157q8 10 34.5 10t35.5 -10z" />
    <glyph glyph-name="percent" unicode="%" horiz-adv-x="1728" 
d="M1636 369q0 -64 -18.5 -131t-54.5 -128t-98.5 -100t-141.5 -39t-141.5 39t-98.5 100t-54.5 128t-18.5 131q0 65 18.5 132t54.5 127.5t98.5 99t141.5 38.5t141.5 -38.5t98.5 -99t54.5 -127.5t18.5 -132zM1489 369q0 39 -2.5 77t-13 88t-27 86.5t-48 62.5t-73.5 26
q-41 0 -73 -25t-49 -62t-28 -86t-14.5 -88.5t-3.5 -78.5t3.5 -78.5t14.5 -88.5t28 -86t49 -62t73 -25q42 0 73.5 26t48 62.5t27 86.5t13 88t2.5 77zM719 913q0 -51 -11 -104t-36 -106t-60 -94t-88.5 -67t-117.5 -26t-117.5 26t-89 67t-60.5 94t-36 106.5t-11 103.5
q0 65 18.5 132t55 128t99 99.5t141.5 38.5t141.5 -38.5t98.5 -99.5t54.5 -128t18.5 -132zM571 913q0 51 -5.5 99.5t-20.5 108t-50 96t-87 36.5q-41 0 -73 -25t-49 -62t-28 -86t-14.5 -88.5t-3.5 -78.5t3.5 -78.5t14.5 -88.5t28 -86t49 -62t73 -25q52 0 87 36.5t50 96
t20.5 108t5.5 99.5zM1303 1300l-834 -1382q-25 0 -43 12.5t-18 32.5l827 1372q16 2 35.5 -7.5t32.5 -27.5z" />
    <glyph glyph-name="ampersand" unicode="&#x26;" horiz-adv-x="1675" 
d="M1178 979h168q178 0 288 8q10 -7 11 -23.5t-7 -25.5l-90 -14q-33 -5 -63.5 -22.5t-48.5 -32.5t-46.5 -53.5t-37 -52t-39.5 -63.5q-58 -93 -238 -342q20 -31 40.5 -61t27.5 -41q39 -59 79.5 -98t80 -56.5t70 -23.5t67.5 -6q50 0 100 19t84 54q13 -2 20 -12.5t3 -23.5
q-111 -138 -326 -138q-68 0 -128.5 17t-90.5 43q-29 25 -125 188q-221 -248 -447 -248q-103 0 -183.5 34.5t-126 90t-68.5 118t-23 126.5q0 77 25 143t74 120.5t103 95.5t130 87q-158 109 -158 248q0 118 86.5 197.5t200.5 79.5q116 0 190 -69t74 -175q0 -37 -12 -69.5
t-27 -53.5t-46 -45.5t-50 -36t-58 -33.5l-4.5 -3t-4.5 -2.5l-5 -2.5q92 -57 193 -158t198 -243q39 52 106 163.5t107 194.5q45 90 45 113q0 11 -14.5 19.5t-38.5 11.5l-69 8q-9 9 -8.5 25.5t12.5 23.5zM514 743q-90 -45 -160.5 -136.5t-70.5 -205.5q0 -137 85 -223t220 -86
q192 0 352 189q-74 130 -189 255.5t-237 206.5zM582 1251q-65 0 -106.5 -51t-41.5 -117q0 -128 168 -223q123 83 123 213q0 74 -37 126t-106 52z" />
    <glyph glyph-name="quotesingle" unicode="'" horiz-adv-x="481" 
d="M242 1434q48 0 68 -9.5t20 -40.5l-11 -79l-53 -330q-24 -25 -49 0l-53 330q-10 72 -10 79q0 31 20 40.5t68 9.5z" />
    <glyph glyph-name="parenleft" unicode="(" horiz-adv-x="655" 
d="M299 553q0 -525 315 -856q0 -28 -28 -31q-191 126 -306.5 364.5t-115.5 522.5t115.5 522.5t306.5 364.5q28 -3 28 -31q-315 -331 -315 -856z" />
    <glyph glyph-name="parenright" unicode=")" horiz-adv-x="655" 
d="M356 553q0 525 -315 856q0 28 29 31q191 -126 306.5 -364.5t115.5 -522.5t-115.5 -522.5t-306.5 -364.5q-29 3 -29 31q315 331 315 856z" />
    <glyph glyph-name="asterisk" unicode="*" horiz-adv-x="806" 
d="M430 1384l21 -266l256 129q13 -1 21 -15t3 -28l-235 -164l233 -161q5 -14 -2.5 -29t-21.5 -16l-254 133l-21 -267q-9 -8 -24.5 -8t-24.5 8l-23 267l-254 -133q-13 1 -21 16t-3 29l233 161l-235 164q-5 14 3 28t21 15l256 -129l23 266q9 8 23.5 8t25.5 -8z" />
    <glyph glyph-name="plus" unicode="+" horiz-adv-x="1024" 
d="M573 0h-120v371h-334v100h334v336h120v-336h334v-100h-334v-371z" />
    <glyph glyph-name="comma" unicode="," horiz-adv-x="512" 
d="M231 250q61 0 111.5 -53.5t50.5 -147.5q0 -114 -74 -187.5t-192 -109.5q-13 4 -17 23t5 26q28 9 53.5 22t53.5 34.5t44.5 53.5t16.5 69q0 24 -10 44t-26.5 32.5t-31 20t-31 14t-18.5 7.5q-35 18 -35 60q0 38 26.5 65t73.5 27z" />
    <glyph glyph-name="hyphen" unicode="-" horiz-adv-x="655" 
d="M82 461l477 45q31 -19 31 -66q0 -31 -17 -51l-477 -45q-30 23 -30 66q0 32 16 51z" />
    <glyph glyph-name="hyphen" unicode="&#xad;" horiz-adv-x="655" 
d="M82 461l477 45q31 -19 31 -66q0 -31 -17 -51l-477 -45q-30 23 -30 66q0 32 16 51z" />
    <glyph glyph-name="period" unicode="." horiz-adv-x="512" 
d="M256 -29q-46 0 -80.5 31.5t-34.5 81.5q0 52 32.5 86.5t82.5 34.5q51 0 83 -35t32 -86q0 -50 -31.5 -81.5t-83.5 -31.5z" />
    <glyph glyph-name="slash" unicode="/" horiz-adv-x="669" 
d="M608 1405l-428 -1438h-119l428 1438h119z" />
    <glyph glyph-name="zero" unicode="0" horiz-adv-x="1024" 
d="M512 1311q73 0 135 -28t108 -77t81 -113.5t56.5 -140.5t32.5 -154t11 -157q0 -99 -15 -193.5t-48.5 -181.5t-82 -152t-120 -104t-158.5 -39t-158.5 39t-120 104t-82 152t-48.5 181.5t-15 193.5q0 79 11 157t32.5 154t56.5 140.5t81 113.5t108 77t135 28zM512 1249
q-46 0 -84 -24t-62.5 -62t-43 -93t-28 -108t-15.5 -117t-7.5 -109t-1.5 -95t1.5 -95t7.5 -109t15.5 -117t28 -108t43 -93t62.5 -62t84 -24t84 24t62.5 62t43 93t28 108t15.5 117t7.5 109t1.5 95t-1.5 95t-7.5 109t-15.5 117t-28 108t-43 93t-62.5 62t-84 24z" />
    <glyph glyph-name="one" unicode="1" horiz-adv-x="1024" 
d="M451 250v696q0 112 -16.5 149.5t-82.5 43.5l-98 8q-12 6 -13 22.5t11 22.5q217 39 338 119q13 0 20 -11q-8 -74 -8 -256v-794q0 -125 14 -160t74 -39l86 -6q9 -9 7.5 -28t-11.5 -23q-120 6 -244 6q-125 0 -245 -6q-10 4 -11.5 23t7.5 28l83 6q62 4 75.5 39t13.5 160z" />
    <glyph glyph-name="two" unicode="2" horiz-adv-x="1024" 
d="M393 127h254q143 0 193 45q40 36 65 84q10 5 24.5 1t20.5 -13q-51 -193 -94 -250q-126 6 -264 6h-297q-159 0 -227 -6q-15 8 -15 26q0 8 23 23q66 43 126.5 101t186.5 194q59 63 104 120.5t91.5 131t72 153.5t25.5 158q0 141 -66.5 220t-189.5 79q-89 0 -156 -54.5
t-110 -150.5q-14 -9 -31.5 -0.5t-17.5 27.5q49 134 160.5 211.5t250.5 77.5q153 0 245.5 -92.5t92.5 -241.5q0 -199 -219 -451l-125 -143q-186 -214 -186 -238q0 -11 12 -14.5t51 -3.5z" />
    <glyph glyph-name="three" unicode="3" horiz-adv-x="1024" 
d="M287 -115q-51 0 -94 11t-76 41t-33 75q0 32 22.5 56t57.5 24q23 0 43.5 -14t29 -24.5t25.5 -35.5q22 -32 45.5 -46.5t63.5 -14.5q51 0 113.5 31.5t119 83t95 128.5t38.5 158q0 144 -68.5 239t-195.5 95q-129 0 -221 -100q-26 3 -40 23.5t-5 48.5q247 111 328 178
q108 89 108 196q0 80 -48.5 128t-119.5 48q-167 0 -276 -180q-15 -3 -29 5.5t-14 23.5q48 109 150.5 178.5t219.5 69.5q127 0 206 -64t79 -172q0 -72 -45 -133t-174 -129q-14 -28 24 -31q125 -10 211 -93t86 -222q0 -111 -51.5 -217t-146.5 -189q-104 -91 -221.5 -133.5
t-206.5 -42.5z" />
    <glyph glyph-name="four" unicode="4" horiz-adv-x="1024" 
d="M559 387h-489q-13 0 -21 10t-8 25q0 18 7 31.5t30 46.5l657 917q23 29 47 29h35q31 0 31 -16q0 -10 -10 -23l-652 -901q-11 -25 0 -29t58 -4h317q37 0 47 9t10 44v377q0 29 19 41q50 32 104 35q20 1 24.5 -13t4.5 -51v-395q0 -29 7.5 -38t33.5 -9h131q14 -10 14 -41.5
t-14 -44.5h-111q-40 0 -50.5 -7t-10.5 -38v-92q0 -126 13.5 -159t74.5 -40l53 -6q9 -9 7.5 -28t-11.5 -23q-111 6 -213 6q-121 0 -256 -6q-10 4 -11.5 23t7.5 28l92 6q62 4 77 39.5t15 159.5v86q0 36 -9 43.5t-50 7.5z" />
    <glyph glyph-name="five" unicode="5" horiz-adv-x="1024" 
d="M160 850l108 364q8 27 19.5 40t34.5 16l493 69q8 1 13.5 -5t5.5 -13q-22 -72 -74 -127l-387 -55q-35 -4 -48 -15t-22 -41l-37 -122q-6 -19 0.5 -27t28.5 -10l43 -4q82 -8 155.5 -26t146 -53.5t124.5 -84t84.5 -122t32.5 -163.5q0 -103 -45 -198t-120 -167t-169.5 -127
t-198 -85t-201.5 -33q-17 6 -18.5 29.5t12.5 33.5q119 7 226 46t187 102t127.5 153t47.5 193q0 84 -34.5 149.5t-89 105t-129.5 65.5t-147 36.5t-151 11.5q-23 0 -26 14.5t8 49.5z" />
    <glyph glyph-name="six" unicode="6" horiz-adv-x="1024" 
d="M82 483q0 155 63 325t211 316q75 74 162 130.5t167 88t142 48.5t117 24q10 -4 13 -20t-5 -23q-71 -24 -110 -39.5t-107 -47.5t-126.5 -75.5t-110.5 -99.5q-234 -247 -234 -621q0 -92 16.5 -172t49.5 -144.5t89.5 -102t129.5 -37.5q111 0 171 88t60 225q0 91 -26 166.5
t-84.5 125.5t-141.5 50q-41 0 -94 -16q-9 4 -10.5 14t4.5 19q97 61 201 61q146 0 235.5 -104t89.5 -263q0 -182 -121 -305t-311 -123q-109 0 -194.5 40.5t-138.5 111t-80 162t-27 198.5z" />
    <glyph glyph-name="seven" unicode="7" horiz-adv-x="1024" 
d="M731 1155h-409q-94 0 -136 -17.5t-84 -86.5q-10 -5 -23.5 -1t-19.5 17q52 143 70 221q50 -6 217 -6h346q250 0 275 6q14 -4 14 -18q-85 -131 -193 -350l-522 -1051q-25 -3 -45 8t-24 31l579 1171q23 46 14 61t-59 15z" />
    <glyph glyph-name="eight" unicode="8" horiz-adv-x="1024" 
d="M539 1311q144 0 242 -79t98 -220q0 -25 -4.5 -48t-10.5 -42t-18.5 -39t-22 -33.5t-27.5 -31t-29 -27.5t-33 -25.5t-32.5 -22.5t-33.5 -22.5t-31 -20.5q59 -34 102.5 -67t84 -79t62 -105.5t21.5 -129.5q0 -160 -113 -254t-296 -94q-57 0 -109.5 11.5t-102.5 37.5
t-86.5 64.5t-58.5 97.5t-22 131q0 55 22.5 105t66.5 94t85.5 75.5t101.5 69.5q-231 128 -233 322q-1 152 107 242t270 90zM518 33q109 0 173.5 67.5t64.5 180.5q0 58 -25.5 111.5t-70.5 95.5t-95.5 74.5t-111.5 60.5q-95 -65 -141 -142t-46 -149q0 -130 69.5 -214.5
t182.5 -84.5zM524 1249q-101 0 -158 -66t-57 -161q0 -50 22.5 -95t65 -81t84 -62t97.5 -53q163 118 163 277q0 97 -61 169t-156 72z" />
    <glyph glyph-name="nine" unicode="9" horiz-adv-x="1024" 
d="M489 1249q-101 0 -165 -74.5t-64 -207.5q0 -84 25.5 -160.5t81 -130t129.5 -53.5q57 0 90 8q6 -3 7.5 -11t-1.5 -14q-69 -59 -184 -59q-129 0 -220.5 95.5t-91.5 250.5q0 182 121.5 300t298.5 118q188 0 298 -146t110 -377q0 -179 -76 -360.5t-225 -314.5
q-106 -94 -239 -154.5t-249 -81.5q-12 4 -16 22t4 25q180 54 303 144q152 112 233.5 287t81.5 450q0 60 -7 118t-25 118.5t-45 105.5t-72.5 73.5t-102.5 28.5z" />
    <glyph glyph-name="colon" unicode=":" horiz-adv-x="512" 
d="M256 573q-46 0 -80.5 31.5t-34.5 81.5q0 52 32.5 86.5t82.5 34.5q51 0 83 -35t32 -86q0 -50 -31.5 -81.5t-83.5 -31.5zM256 -29q-46 0 -80.5 31.5t-34.5 81.5q0 52 32.5 86.5t82.5 34.5q51 0 83 -35t32 -86q0 -50 -31.5 -81.5t-83.5 -31.5z" />
    <glyph glyph-name="semicolon" unicode=";" horiz-adv-x="512" 
d="M231 250q61 0 111.5 -53.5t50.5 -147.5q0 -114 -74 -187.5t-192 -109.5q-13 4 -17 23t5 26q28 9 53.5 22t53.5 34.5t44.5 53.5t16.5 69q0 24 -10 44t-26.5 32.5t-31 20t-31 14t-18.5 7.5q-35 18 -35 60q0 38 26.5 65t73.5 27zM256 573q-46 0 -80.5 31.5t-34.5 81.5
q0 52 32.5 86.5t82.5 34.5q51 0 83 -35t32 -86q0 -50 -31.5 -81.5t-83.5 -31.5z" />
    <glyph glyph-name="less" unicode="&#x3c;" horiz-adv-x="1024" 
d="M115 467l796 379v-119l-649 -303v-4l649 -305v-117l-796 377v92z" />
    <glyph glyph-name="equal" unicode="=" horiz-adv-x="1024" 
d="M907 625v-101h-788v101h788zM907 317v-100h-788v100h788z" />
    <glyph glyph-name="greater" unicode="&#x3e;" horiz-adv-x="1024" 
d="M113 846l796 -379v-92l-796 -377v117l649 305v4l-649 303v119z" />
    <glyph glyph-name="question" unicode="?" horiz-adv-x="657" 
d="M213 1323q81 0 163 -58.5t135.5 -156.5t53.5 -203q0 -76 -24.5 -122.5t-53.5 -61.5l-161 -86q-72 -38 -72 -90q0 -37 20 -119q-6 -12 -20 -15t-23 5q-27 43 -50 102t-23 100q0 57 27 87.5t83 60.5l101 53q112 59 112 150q0 80 -45 125q-40 40 -94 52.5t-143 12.5
q-18 0 -43 25.5t-25 60.5q0 32 22 55t60 23zM258 -29q-46 0 -80.5 31.5t-34.5 81.5q0 52 32.5 86.5t82.5 34.5q51 0 83 -35t32 -86q0 -50 -31.5 -81.5t-83.5 -31.5z" />
    <glyph glyph-name="at" unicode="@" horiz-adv-x="1566" 
d="M926 666q-31 0 -59 -14t-70 -48q-84 -67 -149.5 -196t-65.5 -215q0 -27 24 -27q8 0 25.5 7t55.5 33t83 66q69 61 145.5 170t98.5 164q-8 25 -32 42.5t-56 17.5zM1061 692l51 105q23 9 53 0t45 -25q-30 -68 -123.5 -288.5t-115.5 -278.5q-14 -35 -3 -51t50 -15
q110 4 199.5 53.5t144.5 144.5t55 220q0 141 -71 249.5t-191.5 165t-271.5 56.5q-148 0 -272 -58.5t-206 -157t-127 -227t-45 -270.5q0 -77 18 -152t62.5 -150.5t112 -132.5t175.5 -92.5t243 -35.5q68 0 135 13.5t100.5 25.5t81.5 33q11 -5 16 -16t1 -23q-85 -54 -191.5 -79
t-204.5 -25q-103 0 -201.5 24t-187.5 75t-155.5 123.5t-106 178t-39.5 231.5q0 175 67 324.5t179 249t258.5 155.5t304.5 56q142 0 258.5 -44.5t191 -119.5t114.5 -170t40 -199q0 -99 -36.5 -188t-103 -157t-168 -108t-222.5 -40q-148 0 -148 45q0 18 17 63l51 129l-4 2
q-93 -96 -208.5 -167.5t-178.5 -71.5q-40 0 -62 27t-22 65q0 40 37.5 129t117.5 186q209 258 410 258q22 0 45.5 -12.5t30.5 -32.5z" />
    <glyph glyph-name="A" unicode="A" horiz-adv-x="1275" 
d="M924 197l-90 278q-11 34 -24.5 42.5t-59.5 8.5h-310q-39 0 -53.5 -8.5t-24.5 -40.5l-71 -215q-45 -134 -45 -170q0 -20 12 -29t47 -12l68 -6q11 -7 10 -26t-14 -25q-29 2 -213 6q-32 0 -197 -6q-9 6 -11 24.5t7 26.5l68 6q85 7 122 101q11 28 41 101t66 163.5t74 191.5
l209 553q41 106 34 146q55 16 107 77q26 0 31 -18q30 -98 90 -274l280 -824q44 -131 75.5 -170t98.5 -47l56 -6q10 -8 9 -26t-9 -25q-126 6 -248 6q-59 0 -236 -6q-12 6 -13.5 25t9.5 26l60 6q71 7 71 37q0 29 -26 109zM557 1014l-129 -357q-12 -35 -6 -42t49 -7h252
q44 0 51.5 11.5t-6.5 52.5l-111 334q-32 97 -47 129h-4q-9 -15 -49 -121z" />
    <glyph glyph-name="B" unicode="B" horiz-adv-x="1239" 
d="M262 307v778q0 119 -17 156t-83 43l-66 6q-12 9 -11 27t13 24q189 17 441 17q230 0 344 -58q155 -76 155 -256q0 -103 -53.5 -168t-155.5 -112q0 -24 39 -31q45 -8 90.5 -32t88 -63.5t69.5 -104t27 -142.5q0 -184 -138 -290.5t-407 -106.5q-26 0 -113 3t-133 3
q-7 0 -235 -6q-9 5 -11 23.5t7 27.5l37 6q22 4 36 7t27 11t20.5 14t13.5 22.5t8.5 30t4.5 43.5t2 55.5v72.5zM430 641v-303q0 -173 43 -223q48 -58 162 -58q146 0 233.5 70.5t87.5 216.5q0 52 -10.5 99t-39 94t-73 81t-117.5 55t-167 21q-79 0 -99 -10t-20 -43zM430 1229
v-416q0 -20 1 -28.5t6.5 -17.5t17 -9t31.5 -3t51 1q165 6 243 64.5t78 197.5q0 73 -25.5 127.5t-69 86t-96.5 47t-114 15.5q-67 0 -94 -12q-16 -5 -22.5 -15.5t-6.5 -37.5z" />
    <glyph glyph-name="C" unicode="C" horiz-adv-x="1425" 
d="M90 668q0 167 69 308t189 234q223 174 553 174q82 0 186 -14t177 -35q41 -10 57 -8q5 -112 29 -301q-7 -10 -26.5 -11.5t-29.5 7.5q-67 299 -420 299q-95 0 -180.5 -23.5t-158.5 -74t-126.5 -123t-83.5 -175.5t-30 -227q0 -157 47.5 -285t130.5 -210.5t193 -127
t237 -44.5q76 0 141.5 19.5t110 48.5t81.5 70t58 78t37 77q10 8 28.5 4.5t24.5 -13.5q-10 -75 -41.5 -161.5t-56.5 -118.5q-22 -3 -72 -21q-42 -15 -138.5 -31t-184.5 -16q-305 0 -510 137q-132 91 -211.5 233.5t-79.5 330.5z" />
    <glyph glyph-name="D" unicode="D" horiz-adv-x="1597" 
d="M262 307v778q0 113 -17 151.5t-79 47.5l-45 6q-13 8 -13 26.5t15 24.5q296 17 514 17q282 0 450 -62q202 -73 309 -234.5t107 -369.5q0 -197 -92.5 -356.5t-265.5 -253.5q-181 -98 -459 -98q-73 0 -189 8t-145 8q-112 0 -256 -6q-9 5 -11 23.5t7 27.5l47 6q32 4 50.5 8.5
t34 18t22 26t11 46t5 64.5t0.5 93zM430 1110v-756q0 -89 8 -138.5t33 -84.5q33 -46 92.5 -65t159.5 -19q146 0 257 46t180 132t103.5 202t34.5 261q0 52 -7.5 104.5t-27 113.5t-50 115t-81.5 105t-116 87.5t-158.5 58.5t-204.5 22q-165 0 -202 -28q-21 -16 -21 -156z" />
    <glyph glyph-name="E" unicode="E" horiz-adv-x="1196" 
d="M262 307v737q0 53 -0.5 81t-3 60t-8 46.5t-13.5 30t-22.5 22t-32.5 11.5t-45 8l-33 4q-9 6 -6.5 26t11.5 25q132 -6 241 -6h385q252 0 277 6q10 -30 32 -273q-6 -9 -24.5 -11t-26.5 7q-30 94 -49 123q-35 54 -106 72q-52 12 -199 12h-147q-45 0 -53.5 -11.5t-8.5 -70.5
v-409q0 -42 10.5 -50t57.5 -8h118q134 0 175 13q20 7 31 21t18 50l16 84q7 9 27 8.5t26 -10.5q0 -21 -4 -92.5t-4 -114.5q0 -41 4 -109t4 -87q-6 -10 -26 -10.5t-27 8.5l-18 80q-14 65 -64 77q-40 11 -158 11h-118q-47 0 -57.5 -8.5t-10.5 -47.5v-288q0 -90 8 -139t31 -74
q23 -23 74.5 -35.5t173.5 -12.5q117 0 172.5 6.5t89.5 24.5q62 34 145 199q10 8 28 3.5t24 -17.5q-10 -53 -41.5 -148t-51.5 -137q-276 6 -548 6h-185q-97 0 -278 -6q-9 5 -11 23.5t7 27.5l67 6q37 3 58.5 10.5t36.5 21t21 45.5t8.5 70t2.5 109z" />
    <glyph glyph-name="F" unicode="F" horiz-adv-x="1101" 
d="M430 1206v-432q0 -40 10 -47.5t58 -7.5h139q136 0 174 12q20 7 31.5 21t19.5 51l19 82q8 9 27.5 9t25.5 -9q0 -21 -4 -93.5t-4 -113.5q0 -40 4 -109.5t4 -89.5q-6 -9 -24 -9t-29 9l-21 80q-17 63 -65 78q-36 10 -158 10h-139q-47 0 -57.5 -8t-10.5 -47v-285
q0 -54 0.5 -82t3 -60t8 -46.5t13.5 -29.5t22.5 -21t32.5 -10.5t45 -6.5l70 -6q9 -6 7 -26t-11 -25q-181 6 -273 6q-112 0 -256 -6q-9 5 -11 23.5t7 27.5l51 6q32 4 50.5 8t34 17.5t22 26.5t11 46.5t5 64.5t0.5 93v737q0 63 -0.5 94t-5 65t-11 47t-21.5 26.5t-34 18t-51 8.5
l-33 4q-9 6 -6.5 26t11.5 25q129 -6 237 -6h377q249 0 276 6q0 -134 7 -271q-5 -9 -22 -12t-28 6q-7 39 -15 66t-23.5 55t-41.5 46t-63 28q-45 12 -199 12h-124q-45 0 -53.5 -11.5t-8.5 -70.5z" />
    <glyph glyph-name="G" unicode="G" horiz-adv-x="1529" 
d="M1327 324v-115q0 -127 49 -146q5 -4 4.5 -12t-6.5 -12q-26 0 -100 -19q-199 -53 -367 -53q-399 0 -624 228q-189 189 -189 464q0 135 46.5 261.5t138.5 224.5q229 239 649 239q129 0 260 -30q108 -22 127 -19q0 -85 31 -297q-4 -12 -25.5 -13.5t-30.5 7.5
q-41 158 -147 224.5t-273 66.5q-116 0 -211.5 -32t-161.5 -87t-111 -130.5t-66 -161t-21 -179.5q0 -119 24 -224t74 -193t122 -151t172.5 -98.5t221.5 -35.5q92 0 150 16.5t76 44.5q20 28 20 117v82q0 49 -0.5 74t-6 50t-12 34.5t-24 19.5t-36.5 13t-54 7l-90 11
q-12 6 -11.5 26t11.5 25q88 -6 293 -6q115 0 217 6q11 -6 11.5 -24t-9.5 -27l-33 -4q-25 -3 -42 -12.5t-26 -21.5t-13.5 -36.5t-5.5 -44t-1 -57.5z" />
    <glyph glyph-name="H" unicode="H" horiz-adv-x="1650" 
d="M1118 662h-586q-73 0 -87.5 -10t-14.5 -56v-289q0 -59 1 -93t6 -65.5t12 -46t22.5 -27t34 -17t49.5 -7.5l59 -6q9 -6 7 -26t-11 -25q-166 6 -260 6q-39 0 -78.5 -1t-85.5 -2.5t-73 -2.5q-9 5 -11 23.5t7 27.5l34 6q31 5 49 10t33 18.5t21 25.5t10.5 45t5 64t0.5 93v737
q0 69 -2.5 109.5t-9 71.5t-21.5 46t-34.5 22t-53.5 10l-53 4q-9 6 -7 26t11 25q31 -1 119 -3.5t139 -2.5q106 0 238 6q9 -5 11 -25t-7 -26l-39 -4q-24 -2 -40 -5t-29.5 -10.5t-21.5 -14.5t-15 -24t-9.5 -31.5t-4.5 -44.5t-2.5 -56t-0.5 -73v-235q0 -47 14.5 -56.5t87.5 -9.5
h586q74 0 88.5 9.5t14.5 56.5v235q0 63 -0.5 94t-5 65t-11.5 47.5t-22 27t-34.5 18t-51.5 7.5l-39 4q-9 6 -7 26t11 25q141 -6 248 -6q103 0 241 6q9 -5 11 -25t-7 -26l-43 -4q-24 -2 -39.5 -5t-29.5 -11t-22 -14.5t-14.5 -23.5t-9.5 -31t-4.5 -45t-2 -56t-0.5 -73v-737
q0 -48 0.5 -73t2 -55.5t4.5 -44t9.5 -30.5t14.5 -23t22 -13.5t29.5 -10.5t39.5 -6l50 -6q9 -6 6.5 -26t-11.5 -25q-147 6 -247 6q-113 0 -248 -6q-9 5 -11 23.5t7 27.5l39 6q20 3 34 5.5t27 8.5t21 9t16 14.5t11.5 17t7 24.5t5 30t2.5 40t1 47.5v59.5v289q0 46 -15 56
t-88 10z" />
    <glyph glyph-name="I" unicode="I" horiz-adv-x="692" 
d="M262 311v729q0 63 -0.5 95t-5 66.5t-11.5 48.5t-22 28t-34.5 18t-51.5 7l-51 4q-9 6 -7 26t11 25q153 -6 258 -6q101 0 254 6q9 -5 11 -25t-7 -26l-51 -4q-32 -3 -51.5 -7t-34.5 -18t-22 -28t-11.5 -48.5t-5 -66.5t-0.5 -95v-729q0 -47 0.5 -73t2.5 -56.5t4.5 -45
t9.5 -31.5t15 -23.5t22.5 -14t30.5 -10.5t40 -6l51 -6q9 -6 7 -26t-11 -25q-153 6 -254 6q-105 0 -258 -6q-9 5 -11 23.5t7 27.5l51 6q24 3 40 6t30.5 10.5t22.5 14t15 23.5t9.5 31.5t4.5 45t2.5 56.5t0.5 73z" />
    <glyph glyph-name="J" unicode="J" horiz-adv-x="706" 
d="M293 266v774q0 118 -11 169t-38 70t-92 24l-52 4q-9 6 -7 26t11 25q179 -6 275 -6q110 0 233 6q9 -5 11 -25t-7 -26l-30 -4q-28 -4 -45.5 -9t-32 -11.5t-22.5 -22t-14 -30t-8 -47t-2.5 -61t-0.5 -82.5v-759q0 -285 -47 -398q-54 -130 -160.5 -212.5t-243.5 -82.5
q-88 0 -88 43q0 30 22 62.5t52 32.5q32 0 76 -13q51 -14 86 -14q56 0 82 53q21 44 34 154.5t16 195.5t3 164z" />
    <glyph glyph-name="K" unicode="K" horiz-adv-x="1382" 
d="M262 307v737q0 63 -0.5 94t-5 65.5t-11.5 48t-21.5 27t-34 17.5t-50.5 7l-51 4q-9 6 -7 26t11 25q150 -6 258 -6q106 0 238 6q9 -5 11 -25t-7 -26l-39 -4q-24 -2 -40 -5t-29.5 -10.5t-21.5 -14.5t-15 -24t-9.5 -31.5t-4.5 -44.5t-2.5 -56t-0.5 -73v-235q0 -78 27 -78
q25 0 57 23q15 13 54.5 51t49.5 47l222 219q33 32 89 91t70 79q15 21 15 33t-35 20l-55 13q-11 10 -9.5 27t13.5 24q108 -6 225 -6q111 0 203 6q10 -7 11.5 -24.5t-7.5 -26.5q-104 -8 -191 -58q-92 -53 -286 -237l-185 -174q-47 -47 -47 -64q0 -15 39 -63q40 -46 134.5 -155
t139.5 -159.5t113.5 -126.5t124.5 -135q74 -74 164 -84l55 -6q10 -8 8.5 -27t-12.5 -24q-79 6 -229 6q-109 0 -250 -6q-11 3 -14 22.5t6 28.5l47 8q49 7 49 21q0 10 -29 47q-17 22 -40.5 48.5t-62.5 69t-67 74.5l-163 185q-108 121 -134 143q-34 29 -65 29
q-22 0 -28.5 -20.5t-6.5 -78.5v-264q0 -47 0.5 -73t2 -56t4.5 -44t9.5 -30.5t14.5 -23t21 -14t28.5 -10.5t38.5 -5l55 -6q9 -6 7 -26t-11 -25q-150 6 -250 6q-111 0 -237 -6q-9 5 -11 22.5t7 28.5l41 6q22 3 36.5 6t27 11t20 14t13.5 23t8.5 30.5t4.5 43.5t2 55.5v72.5z" />
    <glyph glyph-name="L" unicode="L" horiz-adv-x="1132" 
d="M262 307v737q0 63 -0.5 94t-5.5 65.5t-12 48t-23 27t-37 17.5t-55 7l-51 4q-9 6 -7 26t11 25q173 -6 266 -6q99 0 252 6q9 -5 11 -25t-7 -26l-49 -4q-32 -3 -51.5 -7t-34.5 -17.5t-22 -27t-11.5 -48t-5 -65.5t-0.5 -94v-712q0 -102 8 -147.5t35 -73.5q14 -14 32 -23
t66.5 -17t124.5 -8q123 0 173 6t77 21q32 19 68.5 73t66.5 130q9 8 30.5 3t21.5 -15q0 -20 -33 -134.5t-53 -152.5q-156 6 -510 6h-189q-94 0 -266 -6q-9 5 -11 23.5t7 27.5l61 6q24 2 39.5 5t29.5 10.5t22 14t15 23t9.5 30.5t4.5 44.5t2.5 56t0.5 72.5z" />
    <glyph glyph-name="M" unicode="M" horiz-adv-x="1867" 
d="M563 1020l234 -473q107 -219 141 -281h4q52 90 158 307l192 392q105 213 127 271q27 71 29 122q70 -6 154 -6q88 0 182 6q9 -6 9.5 -25.5t-7.5 -25.5l-43 -4q-94 -9 -120 -46.5t-24 -148.5q1 -34 3 -182.5t4 -240t6 -228.5t10 -240q5 -91 15 -115q18 -45 85 -51l66 -6
q9 -9 7.5 -27t-11.5 -24q-126 6 -242 6q-122 0 -248 -6q-10 7 -11.5 24.5t7.5 26.5l60 6q31 3 49 10.5t29 16t15.5 33.5t5.5 45.5t1 68.5l-6 854h-4q-6 -10 -30 -58t-55.5 -112t-47.5 -96l-183 -358q-162 -316 -221 -467q-5 -8 -20 -8q-14 0 -19 8q-26 82 -180 409l-184 396
q-16 36 -61 138.5t-70 155.5h-4q-13 -211 -21 -364q-14 -292 -14 -481q0 -116 16.5 -151.5t75.5 -39.5l78 -6q10 -9 9.5 -27.5t-11.5 -23.5q-105 6 -228 6q-104 0 -209 -6q-9 8 -11 25.5t7 25.5l45 6q48 7 70 18t36.5 45t20.5 105q25 280 35 451q17 293 23 456q3 99 -21 132
t-116 45l-33 4q-8 9 -6 27t14 24q91 -6 162 -6q102 0 170 6q-10 -97 106 -338z" />
    <glyph glyph-name="N" unicode="N" horiz-adv-x="1603" 
d="M1364 838v-490q0 -305 6 -358q-8 -23 -39 -23q-39 55 -262 309l-475 541q-14 16 -113.5 133.5t-124.5 143.5h-4q-10 -31 -10 -133v-447q0 -360 37 -424q17 -32 104 -39l64 -6q9 -12 8 -27.5t-12 -23.5q-138 6 -240 6q-105 0 -213 -6q-10 7 -11.5 24.5t7.5 26.5l55 6
q76 10 90 41q27 69 27 422v592q0 51 -8 83t-37 64q-39 39 -127 50l-35 4q-9 9 -8.5 27t12.5 24q86 -6 232 -6q53 0 94 6q42 -107 350 -451l199 -223q260 -292 338 -371h4q8 10 8 86v439q0 360 -41 424q-19 28 -127 41l-35 4q-11 9 -9.5 28t13.5 23q141 -6 242 -6
q106 0 211 6q12 -7 12.5 -24.5t-8.5 -26.5l-29 -4q-100 -15 -114 -43q-6 -12 -10.5 -30t-7.5 -42.5t-5.5 -48t-4 -55.5t-2 -55t-1 -57t-0.5 -50.5v-47v-36.5z" />
    <glyph glyph-name="O" unicode="O" horiz-adv-x="1628" 
d="M823 -33q-166 0 -305 56.5t-231 152.5t-142.5 221.5t-50.5 264.5q0 152 55 285.5t151 229.5t231.5 151.5t291.5 55.5q138 0 255 -38.5t200 -105t141.5 -156t86.5 -191.5t28 -211q0 -152 -56 -286t-151 -227.5t-226.5 -147.5t-277.5 -54zM850 31q95 0 179 36t152 105.5
t108 184.5t40 261q0 105 -18.5 203t-60 190t-102.5 160t-154 109t-206 41q-67 0 -132.5 -18t-131 -62.5t-115 -110t-80 -170t-30.5 -233.5q0 -95 18 -189t60.5 -186.5t104 -163t157 -114t211.5 -43.5z" />
    <glyph glyph-name="P" unicode="P" horiz-adv-x="1124" 
d="M430 1221v-914q0 -63 0.5 -93.5t5.5 -64.5t12 -46.5t24 -26t37.5 -17.5t55.5 -8l56 -6q9 -8 6.5 -27t-11.5 -24q-175 6 -266 6q-115 0 -250 -6q-9 5 -11 23.5t7 27.5l43 6q32 4 50.5 8.5t34 18t22 26t11 46t5 64.5t0.5 93v756q0 137 -15 174.5t-81 44.5l-74 8
q-11 9 -9.5 27t13.5 24q132 17 406 17q260 0 393 -82q74 -47 119 -126t45 -181q0 -67 -19 -123.5t-51.5 -95t-65 -64t-69.5 -43.5q-128 -61 -283 -61q-10 4 -10.5 21t8.5 20q159 30 230 117t71 227q0 152 -86 239.5t-243 87.5q-57 0 -78.5 -5.5t-27 -18t-5.5 -49.5z" />
    <glyph glyph-name="Q" unicode="Q" horiz-adv-x="1628" 
d="M823 1384q138 0 255 -38.5t200 -105t141.5 -156t86.5 -191.5t28 -211q0 -249 -138 -433.5t-358 -250.5q-4 -10 17 -31q272 -262 456 -321q88 -29 191 -29q54 0 98 18q9 -1 12 -12t-2 -18q-96 -54 -229 -54q-165 0 -332 76q-192 89 -379 271q-43 43 -66.5 55t-70.5 20
q-119 18 -201 50q-204 76 -321 247.5t-117 391.5q0 152 55 285.5t151 229.5t231.5 151.5t291.5 55.5zM850 31q95 0 179 36t152 105.5t108 184.5t40 261q0 105 -18.5 203t-60 190t-102.5 160t-154 109t-206 41q-67 0 -132.5 -18t-131 -62.5t-115 -110t-80 -170t-30.5 -233.5
q0 -95 18 -189t60.5 -186.5t104 -163t157 -114t211.5 -43.5z" />
    <glyph glyph-name="R" unicode="R" horiz-adv-x="1320" 
d="M262 307v735q0 151 -14.5 192t-75.5 48l-66 8q-11 7 -10 26t13 25q196 17 456 17q228 0 342 -62q170 -88 170 -286q0 -69 -25 -129t-65.5 -101t-81.5 -68t-84 -44q-12 -15 10 -50q138 -222 226.5 -342t185.5 -202q59 -52 141 -58q8 -3 8.5 -12.5t-6.5 -15.5
q-33 -11 -90 -11q-135 0 -226.5 54t-197.5 205q-27 38 -98 150.5t-102 158.5q-24 35 -55.5 50t-90.5 15q-69 0 -82.5 -6.5t-13.5 -38.5v-258q0 -62 0.5 -93t5 -64.5t11 -46t22 -26t34 -18t50.5 -8.5l43 -6q9 -8 7 -27t-11 -24q-138 6 -244 6q-112 0 -256 -6q-9 5 -11 22.5
t7 28.5l51 6q32 4 50.5 8t34 17.5t22 26.5t11 46.5t5 64.5t0.5 93zM430 1229v-479q0 -60 6 -68q10 -10 142 -10q141 0 210 53q103 81 103 254q0 132 -84 223.5t-244 91.5q-66 0 -92 -5t-33.5 -17t-7.5 -43z" />
    <glyph glyph-name="S" unicode="S" horiz-adv-x="1001" 
d="M895 346q0 -170 -119 -274.5t-317 -104.5q-191 0 -320 76q-18 33 -35 123t-20 164q8 11 25.5 13t23.5 -7q11 -38 25.5 -72t43.5 -79.5t65 -77t93 -54t125 -22.5q123 0 189.5 68t66.5 167q0 39 -5.5 70.5t-22 69.5t-51.5 75.5t-89 71.5l-194 127q-221 147 -221 352
q0 152 112 252t305 100q93 0 191 -26q41 -12 72 -12q14 -38 25 -112.5t11 -137.5q-6 -9 -24.5 -12t-26.5 6q-10 35 -20.5 62t-32.5 61t-50 55.5t-73 37t-102 15.5q-71 0 -122 -21.5t-76 -57.5t-35.5 -72t-10.5 -76q0 -80 51.5 -144t122.5 -108l164 -103q256 -159 256 -393z
" />
    <glyph glyph-name="T" unicode="T" horiz-adv-x="1351" 
d="M754 1219v-912q0 -63 0.5 -94t5 -65t11 -47t21.5 -26t34 -17t51 -7l65 -6q9 -6 7 -26t-11 -25q-176 6 -268 6q-88 0 -285 -6q-10 5 -10.5 24t10.5 27l74 6q37 3 58.5 10.5t36.5 21t21 45.5t8.5 70t2.5 109v916q0 47 -8 56t-54 9h-112q-197 0 -252 -51q-23 -21 -41 -47
t-27 -43t-24 -51q-12 -9 -30 -3.5t-24 17.5q49 138 78 305q5 3 19.5 3.5t19.5 -3.5q3 -18 13.5 -30.5t22 -19t36 -9.5t40.5 -3.5t50 -0.5h6.5h5.5h830q85 0 110.5 9t48.5 48q7 3 20.5 1.5t16.5 -7.5q-17 -61 -26.5 -162t-4.5 -149q-6 -12 -26 -13t-27 8q-14 123 -51 150
q-68 51 -238 51h-145q-45 0 -52 -8.5t-7 -60.5z" />
    <glyph glyph-name="U" unicode="U" horiz-adv-x="1527" 
d="M1239 602v236q0 356 -39 424q-21 37 -102 43l-51 4q-9 11 -7 27t11 22q117 -6 233 -6q104 0 215 6q11 -7 11.5 -23.5t-7.5 -25.5l-49 -4q-38 -3 -65.5 -16.5t-36.5 -33.5q-29 -68 -29 -417v-232q0 -336 -143 -489q-65 -71 -170.5 -110.5t-221.5 -39.5q-251 0 -382 113
q-82 68 -121 184.5t-39 298.5v484q0 47 -0.5 72.5t-2 56t-4.5 45t-9.5 31.5t-15 23.5t-22 14t-30 10.5t-39.5 5l-51 4q-9 6 -7 25t11 24q153 -6 254 -6q102 0 252 6q9 -5 11 -24t-7 -25l-49 -4q-23 -2 -39.5 -5t-30 -10.5t-22 -14t-15 -23.5t-9.5 -31.5t-4.5 -45t-2 -56
t-0.5 -72.5v-443q0 -128 21.5 -225t68.5 -171t128.5 -112.5t196.5 -38.5q108 0 188.5 41t128 115.5t70.5 171.5t23 217z" />
    <glyph glyph-name="V" unicode="V" horiz-adv-x="1384" 
d="M565 246l-360 889q-37 91 -70 126t-96 42l-37 4q-11 9 -9.5 26.5t13.5 24.5q89 -6 213 -6q119 0 248 6q11 -6 12.5 -24t-8.5 -27l-31 -4q-93 -12 -96 -39q14 -68 102 -287q171 -432 291 -707q28 60 64.5 144.5t78.5 183.5t54 127q118 278 190 459q19 51 19 80t-92 39
l-37 4q-10 9 -8.5 27t12.5 24q85 -6 213 -6q97 0 199 6q10 -6 11 -25t-7 -26l-62 -4q-64 -5 -106 -72q-88 -148 -230 -471l-110 -252q-156 -358 -213 -535q-9 -6 -23 -6q-16 0 -31 6q-33 123 -94 273z" />
    <glyph glyph-name="W" unicode="W" horiz-adv-x="1966" 
d="M43 1305l-49 4q-9 9 -7.5 26t13.5 23q82 -6 211 -6q125 0 233 6q13 -4 14 -21.5t-9 -27.5l-48 -4q-67 -6 -67 -35q0 -31 106 -275q113 -251 355 -764q98 204 157 332q33 71 33 84t-16 53q-96 219 -226 492q-27 54 -55 81.5t-76 31.5l-49 4q-11 12 -9.5 27.5t13.5 21.5
q89 -6 219 -6q156 0 226 6q10 -4 11.5 -20.5t-7.5 -28.5l-53 -4q-59 -4 -66 -24t23 -89q64 -148 157 -356q73 150 121 268q28 66 40.5 104.5t10.5 60t-14 28t-39 8.5l-61 4q-10 15 -8.5 29.5t12.5 19.5q82 -6 192 -6q127 0 197 6q10 -4 11.5 -20.5t-7.5 -28.5l-59 -4
q-18 -1 -33.5 -6.5t-30 -18.5t-24.5 -22.5t-22.5 -31t-19 -32t-20 -37t-18.5 -35.5q-31 -55 -83 -161.5t-77 -163.5q-19 -38 -19 -49q0 -13 15 -50q28 -63 99.5 -221.5t109.5 -245.5q102 232 184 433q105 250 164 407q61 167 61 186q0 45 -67 48l-60 4q-12 14 -11 28.5
t13 20.5q117 -6 197 -6q110 0 190 6q12 -4 13.5 -20.5t-9.5 -28.5l-38 -4q-67 -7 -102 -57.5t-117 -241.5q-16 -37 -25 -58l-150 -346q-135 -313 -256 -629q-9 -6 -24 -6q-17 0 -29 6q-23 63 -59.5 151.5t-64 150.5t-70.5 158t-54 122q-182 -369 -256 -582q-9 -6 -24 -6
q-16 0 -31 6q-80 198 -141 330q-40 87 -177 388.5t-214 465.5q-19 41 -28.5 59t-28 42t-40.5 34t-53 13z" />
    <glyph glyph-name="X" unicode="X" horiz-adv-x="1316" 
d="M1292 51l72 -6q10 -9 9.5 -26t-11.5 -25q-141 6 -258 6q-153 0 -264 -6q-9 9 -10.5 25.5t6.5 25.5l59 6q70 6 70 27q0 27 -45 90q-19 28 -87.5 126t-117 165.5t-88.5 120.5q-45 -58 -138 -197.5t-151 -239.5q-27 -49 -27 -65q0 -21 60 -27l55 -6q10 -9 8.5 -26t-10.5 -25
q-111 6 -221 6q-112 0 -211 -6q-13 6 -15 24t9 27l51 6q74 8 129.5 55t114.5 127q202 266 278 377q19 27 19 41q0 11 -25 47l-307 441q-54 77 -90.5 109.5t-87.5 43.5l-66 15q-8 9 -6.5 28t10.5 23q144 -6 238 -6q143 0 231 6q10 -4 11.5 -22.5t-7.5 -28.5l-57 -4
q-27 -1 -44.5 -9.5t-17.5 -17.5q0 -24 62 -113q18 -26 76 -112.5t105.5 -154t80.5 -108.5q35 43 133 195t141 223q29 49 29 68q0 8 -19.5 15.5t-47.5 10.5l-54 7q-9 10 -8.5 27.5t12.5 23.5q108 -6 217 -6q103 0 197 6q10 -7 11.5 -24.5t-7.5 -26.5l-49 -4q-87 -9 -219 -175
q-80 -102 -266 -362q-21 -32 -21 -39q0 -17 27 -53l346 -488q51 -70 94 -100t92 -35z" />
    <glyph glyph-name="Y" unicode="Y" horiz-adv-x="1175" 
d="M688 418v-107q0 -71 2.5 -111t8.5 -72t21 -46t35.5 -21t55.5 -10l78 -6q9 -9 7 -27.5t-11 -23.5q-191 6 -279 6q-104 0 -268 -6q-9 5 -11 23.5t7 27.5l63 6q24 2 39.5 5t29.5 10.5t22 14t15 23.5t9.5 31.5t4.5 45t2.5 56.5t0.5 74v105q0 85 -10.5 126.5t-54.5 127.5
l-242 471q-49 94 -79.5 120.5t-82.5 34.5l-57 11q-9 10 -7.5 27.5t11.5 23.5q99 -6 238 -6q142 0 219 6q13 -4 14.5 -23t-8.5 -28l-27 -4q-51 -7 -68.5 -15.5t-17.5 -21.5t25 -72t39 -86q19 -38 70 -142.5t88 -177t73 -135.5q138 239 193 346q133 247 133 271q0 9 -25 19
t-61 14l-37 4q-11 10 -9.5 27.5t13.5 23.5q111 -6 197 -6q85 0 190 6q12 -7 13.5 -24.5t-9.5 -26.5l-57 -11q-17 -3 -33 -9.5t-32.5 -19t-29 -23t-29 -33t-27 -36.5t-29 -45t-28 -46.5t-31.5 -54t-32 -56.5l-129 -223q-68 -118 -82 -166t-14 -166z" />
    <glyph glyph-name="Z" unicode="Z" horiz-adv-x="1312" 
d="M279 297l442 629q31 44 70 99l58.5 82.5t39 57.5t31.5 52q24 43 24 55q0 16 -74 16h-305q-129 0 -199.5 -14.5t-105.5 -52.5q-52 -57 -90 -140q-13 -6 -29 -1.5t-22 16.5q44 128 84 307q6 5 16.5 5t18.5 -5q4 -36 38 -43.5t164 -7.5h541q201 0 236 6q12 -3 12 -19
q-38 -33 -141.5 -169.5t-194.5 -268.5l-338 -487q-203 -291 -203 -318q0 -14 13 -19.5t45 -8.5q66 -5 303 -5q292 0 379 48q80 45 143 188q13 5 30 2t21 -16q-15 -78 -42 -166.5t-50 -124.5q-170 6 -373 6h-526q-88 0 -229 -6q-11 6 -11 24q33 31 105 121t119 158z" />
    <glyph glyph-name="bracketleft" unicode="[" horiz-adv-x="655" 
d="M240 -307v1712h141q34 0 71.5 -1t82.5 -2.5t71 -2.5q10 -6 10.5 -20.5t-8.5 -24.5l-182 -21q-33 -2 -51 -20q-27 -27 -27 -320v-889q0 -292 27 -319q19 -19 51 -21l182 -20q9 -10 8.5 -24.5t-10.5 -20.5q-26 -1 -71 -2.5t-82.5 -2.5t-71.5 -1h-141z" />
    <glyph glyph-name="backslash" unicode="\" horiz-adv-x="632" 
d="M180 1405l391 -1438h-118l-392 1438h119z" />
    <glyph glyph-name="bracketright" unicode="]" horiz-adv-x="655" 
d="M416 1405v-1712h-142q-34 0 -71.5 1t-82.5 2.5t-71 2.5q-10 6 -10.5 20.5t8.5 24.5l182 20q33 2 52 21q26 26 26 319v889q0 294 -26 320q-17 17 -52 20l-182 21q-9 10 -8.5 24.5t10.5 20.5q26 1 71 2.5t82.5 2.5t71.5 1h142z" />
    <glyph glyph-name="asciicircum" unicode="^" horiz-adv-x="1024" 
d="M922 500h-127l-283 637l-283 -637h-129l363 782h98z" />
    <glyph glyph-name="underscore" unicode="_" horiz-adv-x="1024" 
d="M1024 -154v-102h-1024v102h1024z" />
    <glyph glyph-name="grave" unicode="`" 
d="M285 1311l161 -330q0 -12 -16 -19.5t-27 -5.5l-239 261q-35 38 -35 61q0 20 39 51q45 29 70 29q26 0 47 -47z" />
    <glyph glyph-name="a" unicode="a" horiz-adv-x="827" 
d="M242 336l243 88q22 7 28.5 20t6.5 39l2 95q1 32 -5 60.5t-21 56.5t-46.5 44.5t-76.5 16.5q-48 0 -88 -24t-43 -68q-3 -57 -21 -70q-22 -18 -56.5 -28.5t-60.5 -10.5q-28 0 -28 29q0 51 63.5 111t154 100.5t163.5 40.5q109 0 163.5 -62t49.5 -178l-13 -356
q-8 -179 95 -179q25 0 51 13q23 14 26 14q6 0 10.5 -8t4.5 -19q0 -7 -21 -27.5t-63.5 -41.5t-87.5 -21q-83 0 -133 64q-19 28 -33 28q-4 0 -9.5 -1.5t-13.5 -6t-15 -8.5t-20 -11.5t-22 -12.5q-34 -19 -48 -26t-43.5 -16.5t-55.5 -9.5q-91 0 -144 47q-63 57 -63 144
q0 61 37 100t133 74zM229 186q0 -23 9.5 -48.5t40.5 -50t79 -24.5q29 0 68.5 17.5t56.5 34.5q12 12 18 28.5t7 27.5t2 40l4 121q0 16 -5 21t-15 5q-22 0 -84 -20q-99 -34 -140 -65t-41 -87z" />
    <glyph glyph-name="b" unicode="b" horiz-adv-x="1024" 
d="M154 178v977q0 92 -9.5 117.5t-54.5 52.5l-20 12q-8 5 -8 21t8 20q12 5 57 19.5t88 31.5t78 35q14 0 20 -12q-8 -144 -8 -254v-387q0 -43 21 -43q116 68 235 68q172 0 281.5 -115.5t109.5 -286.5q0 -204 -132.5 -333.5t-338.5 -129.5q-82 0 -174 27q-15 5 -36 12.5
t-32 11t-18 3.5q-21 0 -43 -31q-2 -2 -8 -2q-14 0 -20 12q4 58 4 174zM305 598v-319q0 -116 51 -179q55 -67 156 -67q70 0 123 28t84 76.5t46 107.5t15 128q0 165 -82 270t-229 105q-86 0 -139 -33q-15 -11 -20 -34t-5 -83z" />
    <glyph glyph-name="c" unicode="c" horiz-adv-x="819" 
d="M569 836q106 0 183 -35q30 -26 30 -82q0 -29 -13.5 -52.5t-31.5 -23.5q-17 0 -28 14q-38 46 -92 77.5t-113 31.5q-115 0 -199 -88t-84 -242q0 -62 21.5 -122.5t61 -112t104 -83.5t143.5 -32q83 0 135 32t92 91q12 3 23.5 -6t13.5 -23q-33 -72 -93.5 -121t-122.5 -68.5
t-126 -19.5q-172 0 -280 105q-119 116 -119 303q0 85 30.5 165t89 146t156 106t219.5 40z" />
    <glyph glyph-name="d" unicode="d" horiz-adv-x="1042" 
d="M868 1198v-899q0 -137 10 -187.5t50 -50.5q23 0 88 21q11 -3 11 -31t-13 -35q-66 -9 -147.5 -28.5t-123.5 -36.5q-22 0 -22 16v35q0 56 -4 64h-8q-73 -50 -131 -72.5t-127 -22.5q-167 0 -273 114.5t-106 279.5q0 140 65.5 248.5t178 165.5t251.5 57q83 0 138 -19
q12 0 12 29v309q0 92 -9.5 117.5t-54.5 52.5l-20 12q-7 5 -7 21t7 20q143 45 221 86q14 0 20 -12q-6 -183 -6 -254zM717 203v403q0 47 -23 80q-26 36 -71 61t-101 25q-133 0 -207.5 -99t-74.5 -241q0 -149 81 -255.5t224 -106.5q42 0 87.5 16.5t69.5 40.5q15 15 15 76z" />
    <glyph glyph-name="e" unicode="e" horiz-adv-x="811" 
d="M645 524h-379q-39 0 -47 -8t-8 -47q0 -163 91 -273t249 -110q55 0 99 21.5t89 78.5q15 4 25 -3t12 -21q-47 -96 -138.5 -143.5t-182.5 -47.5q-96 0 -173.5 37t-123.5 98q-86 113 -86 267q0 94 30 178.5t83 147.5t130.5 100t167.5 37q127 0 209 -73.5t82 -170.5
q0 -37 -8 -53q-8 -15 -121 -15zM248 586h145q186 0 213 20q12 8 12 39q0 51 -38 90t-119 39q-85 0 -155.5 -61t-72.5 -117q0 -10 15 -10z" />
    <glyph glyph-name="f" unicode="f" horiz-adv-x="593" 
d="M600 721h-219q-26 0 -30.5 -8.5t-4.5 -50.5v-433q0 -114 12 -144t66 -34l74 -6q10 -8 8.5 -27t-12.5 -24q-138 6 -224 6q-104 0 -196 -6q-11 5 -12.5 24t8.5 27l47 6q55 7 66.5 35.5t11.5 142.5v433q0 42 -5.5 50.5t-35.5 8.5h-72q-9 6 -10.5 18t4.5 21l88 43
q31 15 31 41q0 212 63 360q21 48 51.5 90.5t75 82.5t107.5 63.5t135 23.5q84 0 142 -34.5t58 -88.5q0 -30 -23.5 -51.5t-53.5 -21.5q-29 0 -50 24q-78 90 -163 90q-99 0 -146 -112q-45 -114 -45 -346v-60q0 -42 4.5 -49.5t30.5 -7.5h233q17 -15 10.5 -47.5t-24.5 -38.5z" />
    <glyph glyph-name="g" unicode="g" horiz-adv-x="913" 
d="M748 762h165q18 -7 14 -44t-26 -40h-147q4 -35 4 -105q0 -57 -18 -111t-55.5 -103.5t-107.5 -80t-163 -30.5q-15 0 -90 6q-91 -51 -91 -113q0 -37 37.5 -61.5t106.5 -24.5q33 0 115 3t129 3q41 0 74.5 -3.5t75 -17t69.5 -36.5t47.5 -66t19.5 -102q0 -108 -72 -198
t-188.5 -139.5t-249.5 -49.5q-90 0 -158.5 22.5t-106.5 59t-56.5 76t-18.5 80.5q0 49 23 75q20 21 73 73t66 65q36 36 17 49q-61 15 -105.5 62t-44.5 100q0 12 31 34q48 31 108 95q21 25 21 39q-63 33 -108.5 95.5t-45.5 151.5q0 131 98 220.5t236 89.5q101 0 197 -41
q50 -22 71 -27.5t54 -5.5zM555 -66h-70q-141 0 -176 -22q-41 -26 -69.5 -71.5t-28.5 -100.5q0 -88 70.5 -145.5t203.5 -57.5t218 64.5t85 154.5q0 178 -233 178zM444 307q81 0 124.5 58t43.5 155q0 111 -46.5 183.5t-135.5 72.5q-75 0 -123.5 -63t-48.5 -166q0 -106 55 -173
t131 -67z" />
    <glyph glyph-name="h" unicode="h" horiz-adv-x="1054" 
d="M180 229v926q0 92 -9 117.5t-54 52.5l-21 12q-8 5 -8 21t8 20q143 45 221 86q15 0 21 -12q-6 -183 -6 -254v-430q0 -34 8 -39q139 107 276 107t201 -73.5t64 -191.5v-342q0 -114 11.5 -143t65.5 -35l56 -6q10 -8 8.5 -27t-12.5 -24q-111 6 -205 6q-109 0 -191 -6
q-11 5 -12.5 24t8.5 27l41 6q24 4 37.5 10t22.5 14.5t12.5 32t4.5 47t1 74.5v293q0 101 -49 160t-145 59q-94 0 -160 -55q-29 -24 -36 -42t-7 -71v-344q0 -113 12 -142t66 -36l43 -6q10 -6 8.5 -26t-12.5 -25q-91 6 -193 6t-201 -6q-11 5 -12.5 24t8.5 27l51 6
q55 6 66.5 34.5t11.5 143.5z" />
    <glyph glyph-name="i" unicode="i" horiz-adv-x="526" 
d="M201 229v359q0 62 -8 81t-48 46l-18 12q-6 6 -5.5 19.5t7.5 17.5q38 13 108 45.5t103 54.5q17 0 20 -12q-8 -144 -8 -254v-369q0 -113 12 -142t66 -36l43 -6q10 -8 8.5 -27t-12.5 -24q-91 6 -193 6q-106 0 -192 -6q-11 5 -12.5 24t8.5 27l43 6q55 7 66.5 35.5t11.5 142.5
zM268 1278q45 0 74 -31.5t29 -75.5q0 -52 -31.5 -79t-77.5 -27t-75 30t-29 72q0 50 31.5 80.5t78.5 30.5z" />
    <glyph glyph-name="j" unicode="j" horiz-adv-x="518" 
d="M205 72v516q0 62 -7.5 81t-47.5 46l-19 12q-6 6 -5.5 19.5t7.5 17.5q38 13 108 45.5t103 54.5q18 0 21 -12q-9 -162 -9 -254v-496q0 -215 -43 -319t-120 -183.5t-191 -150.5q-18 3 -26.5 17.5t-2.5 29.5q73 37 121 92q111 129 111 484zM272 1278q45 0 74 -31.5t29 -75.5
q0 -51 -31.5 -78.5t-77.5 -27.5t-75 30t-29 74q0 50 31.5 79.5t78.5 29.5z" />
    <glyph glyph-name="k" unicode="k" horiz-adv-x="987" 
d="M180 229v926q0 92 -9 117.5t-54 52.5l-21 12q-8 5 -8 21t8 20q143 45 221 86q15 0 21 -12q-6 -183 -6 -254v-702q0 -21 5.5 -26t31.5 -5q62 0 139 80l84 90q72 77 72 94q0 16 -46 21l-49 6q-13 4 -13 25t13 26h47q173 0 326 16q10 -4 11.5 -24t-7.5 -27l-65 -12
q-53 -10 -129 -72q-36 -28 -71.5 -60.5t-73 -70t-42.5 -41.5q-18 -17 -21 -27t7 -22q50 -67 137 -164q146 -165 193 -209q36 -34 106 -45l29 -4q11 -7 9.5 -27t-13.5 -24q-88 6 -195 6q-125 0 -213 -6q-12 6 -13.5 25.5t9.5 25.5l37 6q51 7 51 21q0 17 -35 57l-219 254
q-26 29 -63 29q-27 0 -33 -11t-6 -59v-113q0 -113 12 -142t66 -36l49 -6q10 -8 8.5 -27t-12.5 -24q-102 6 -199 6q-106 0 -197 -6q-11 5 -12.5 24t10.5 27l45 6q55 7 66.5 35.5t11.5 142.5z" />
    <glyph glyph-name="l" unicode="l" horiz-adv-x="505" 
d="M332 1198v-969q0 -113 12 -142t66 -36l49 -6q10 -8 8.5 -27t-12.5 -24q-102 6 -199 6q-106 0 -197 -6q-11 5 -12.5 24t8.5 27l47 6q55 7 66.5 35.5t11.5 142.5v926q0 92 -9 117.5t-54 52.5l-21 12q-8 5 -8 21t8 20q143 45 221 86q15 0 21 -12q-6 -183 -6 -254z" />
    <glyph glyph-name="m" unicode="m" horiz-adv-x="1611" 
d="M1286 229v297q0 211 -190 211q-55 0 -101 -20.5t-69 -50.5q-19 -24 -25 -47t-6 -76v-314q0 -113 12 -142t66 -36l43 -6q10 -8 8.5 -27t-12.5 -24q-92 6 -193 6t-186 -6q-11 5 -12.5 24t8.5 27l37 6q20 3 32 6.5t21.5 13t13.5 18t6.5 32.5t3 44t0.5 64v297q0 211 -188 211
q-111 0 -172 -73q-31 -39 -31 -117v-318q0 -80 4.5 -111t19.5 -46t54 -21l37 -6q10 -8 8.5 -27t-12.5 -24q-83 6 -187 6t-198 -6q-11 5 -12.5 24t8.5 27l49 6q55 7 66.5 35.5t11.5 142.5v359q0 62 -8 81t-48 46l-18 12q-6 6 -5.5 19.5t7.5 17.5q40 14 108.5 46t96.5 54
q16 0 22 -14q-4 -47 -4 -96q0 -9 6.5 -16t16.5 -7q149 105 272 105q75 0 124 -28t93 -93q20 -5 51 16q151 105 279 105q118 0 181 -71.5t63 -182.5v-353q0 -113 12 -142t66 -36l49 -6q10 -8 8.5 -27t-12.5 -24q-102 6 -199 6q-100 0 -186 -6q-11 5 -13 24t8 27l37 6
q24 4 37.5 10t22.5 14.5t12.5 32t4.5 47t1 74.5z" />
    <glyph glyph-name="n" unicode="n" horiz-adv-x="1075" 
d="M201 229v359q0 62 -8 81t-48 46l-18 12q-6 6 -5.5 19.5t7.5 17.5q40 14 108.5 46t96.5 54q16 0 22 -14q-4 -47 -4 -96q0 -9 6.5 -16t16.5 -7q170 105 287 105q120 0 179.5 -71.5t59.5 -182.5v-353q0 -113 12 -142t66 -36l45 -6q10 -8 8.5 -27t-12.5 -24q-92 6 -193 6
q-107 0 -190 -6q-11 5 -12.5 24t8.5 27l39 6q24 4 37.5 10t22.5 14.5t12.5 32t4.5 47t1 74.5v306q0 93 -47 147.5t-146 54.5q-57 0 -104 -20.5t-70 -50.5q-19 -25 -25 -50.5t-6 -72.5v-314q0 -80 4.5 -111t19.5 -46t54 -21l37 -6q10 -8 8.5 -27t-12.5 -24q-83 6 -187 6
q-106 0 -192 -6q-11 5 -12.5 24t8.5 27l43 6q55 7 66.5 35.5t11.5 142.5z" />
    <glyph glyph-name="o" unicode="o" horiz-adv-x="995" 
d="M508 836q175 0 295.5 -119t120.5 -305q0 -193 -120.5 -317t-311.5 -124q-180 0 -300 116.5t-120 305.5q0 191 126 317t310 126zM748 379q0 55 -8.5 108.5t-29 106t-50 92t-75.5 64t-102 24.5q-104 0 -169.5 -94.5t-65.5 -259.5q0 -98 27.5 -183.5t89 -144.5t147.5 -59
q64 0 112 31t74 83.5t38 110t12 121.5z" />
    <glyph glyph-name="p" unicode="p" horiz-adv-x="1038" 
d="M174 -293v881q0 62 -7.5 81t-47.5 46l-19 12q-6 6 -5.5 19.5t7.5 17.5q130 57 203 110q19 0 25 -14q-8 -74 -8 -94q0 -27 18 -27q1 1 37 20t68.5 34t84.5 29t97 14q152 0 246 -108t94 -267q0 -214 -141 -352t-359 -138q-73 0 -113 9q-15 -3 -21.5 -15.5t-6.5 -42.5v-215
q0 -112 11.5 -139.5t65.5 -34.5l80 -10q10 -8 8.5 -27t-12.5 -24q-147 6 -229 6q-108 0 -193 -6q-11 5 -12.5 24t8.5 27l43 6q55 7 66.5 35.5t11.5 142.5zM326 559v-352q0 -46 13.5 -71t47.5 -52q60 -45 148 -45q123 0 194.5 103t71.5 266q0 133 -73.5 231t-203.5 98
q-60 0 -107 -17.5t-67 -39.5q-24 -31 -24 -121z" />
    <glyph glyph-name="q" unicode="q" horiz-adv-x="1017" 
d="M866 569v-862q0 -111 12 -138t66 -36l60 -10q10 -8 8 -27t-13 -24q-117 6 -208 6q-96 0 -213 -6q-11 5 -13 24t8 27l64 6q55 6 66.5 34.5t11.5 143.5v266q0 30 -3.5 40t-15.5 10q-89 -52 -209 -52q-88 0 -160 26.5t-118 68.5t-78 96.5t-45.5 107t-13.5 103.5
q0 144 68.5 251t178.5 159.5t244 52.5q94 0 170 -21q54 -14 72 -14q15 0 55 35q15 0 23 -19q-17 -69 -17 -248zM715 168v305q0 153 -27 205q-24 41 -69 67.5t-107 26.5q-117 0 -192.5 -94.5t-75.5 -239.5q0 -170 89.5 -277.5t233.5 -107.5q105 0 133 33q15 18 15 82z" />
    <glyph glyph-name="r" unicode="r" horiz-adv-x="679" 
d="M201 229v359q0 62 -8 81t-48 46l-18 12q-6 6 -5.5 19.5t7.5 17.5q35 12 101.5 44t105.5 56q16 -3 16 -14v-119q0 -15 6 -18q49 40 76.5 60.5t71 41.5t78.5 21q39 0 65.5 -23t26.5 -59q0 -46 -28.5 -70.5t-59.5 -24.5q-19 0 -45 15q-51 33 -90 33q-45 0 -74 -41
q-27 -39 -27 -158v-279q0 -114 12.5 -144t69.5 -34l74 -6q10 -8 8.5 -27t-12.5 -24q-144 6 -228 6q-108 0 -188 -6q-11 5 -12.5 24t8.5 27l39 6q24 4 37.5 10t22.5 14.5t12.5 32t4.5 47t1 74.5z" />
    <glyph glyph-name="s" unicode="s" horiz-adv-x="661" 
d="M381 836q60 0 112.5 -12t67.5 -25q33 -83 33 -166q-6 -11 -23.5 -13t-25.5 7q-27 70 -73 109.5t-107 39.5q-60 0 -96 -34.5t-36 -90.5q0 -24 11 -47t22 -36.5t40 -34t39.5 -26.5l45.5 -26q48 -27 80 -49.5t64.5 -56t48.5 -76t16 -94.5q0 -111 -86.5 -172.5t-208.5 -61.5
q-142 0 -219 62q-12 30 -20 93.5t-5 113.5q8 9 24 10t24 -8q65 -211 217 -211q59 0 98 34t39 97q0 34 -13 62.5t-39 52t-48 38.5t-58 35q-100 57 -151.5 115t-51.5 137q0 109 79 171.5t200 62.5z" />
    <glyph glyph-name="t" unicode="t" horiz-adv-x="628" 
d="M600 721h-231q-26 0 -31.5 -8t-5.5 -41v-383q0 -41 2.5 -70t11.5 -61t24.5 -51.5t43.5 -32.5t67 -13q27 0 56 11q8 3 19.5 10t20.5 12.5t11 5.5q11 0 17 -12t3 -22q-33 -39 -88.5 -67t-126.5 -28q-64 0 -107.5 16.5t-65.5 49t-31 69.5t-9 87v469q0 42 -6 50.5t-37 8.5
h-57q-9 6 -10.5 20t4.5 23q92 28 131 63q49 46 86 121q7 4 22.5 1.5t20.5 -11.5v-92q0 -28 5.5 -33.5t31.5 -5.5h227q18 -14 17 -45t-15 -41z" />
    <glyph glyph-name="u" unicode="u" horiz-adv-x="1048" 
d="M326 643v-342q0 -45 4.5 -79t17.5 -64.5t34 -50t54.5 -30.5t79.5 -11q42 0 87.5 16t78.5 45q41 38 41 119v336q0 34 -1 56t-6 39t-8 25.5t-15 17t-19 12t-27 11.5l-26 11q-11 6 -10.5 22.5t12.5 22.5q65 2 136 12.5t103 24.5q16 -3 19 -15q-7 -68 -7 -178v-344
q0 -130 11.5 -176.5t52.5 -46.5q32 0 80 10q10 -8 10 -30.5t-12 -28.5l-27.5 -5.5t-31 -6t-30.5 -6.5t-33.5 -7.5t-31 -7.5t-32.5 -9.5t-29 -10t-29 -11.5t-24 -12q-18 0 -25 14v84q0 29 -18 29q-50 -32 -77 -48t-89 -37.5t-117 -21.5q-131 0 -189.5 64t-58.5 192v342
q0 101 -8.5 127.5t-52.5 46.5l-25 11q-9 7 -7.5 24t11.5 21q122 3 219 37q18 -3 21 -15q-6 -53 -6 -178z" />
    <glyph glyph-name="v" unicode="v" horiz-adv-x="884" 
d="M340 188l-172 416q-3 7 -11 27.5t-11 27.5t-11 23.5t-13 23t-14 17.5t-17.5 16t-20 10t-25.5 7l-41 6q-9 12 -7.5 29.5t13.5 21.5q76 -6 193 -6q61 0 166 6q11 -6 11.5 -24.5t-9.5 -26.5l-25 -4q-46 -7 -53.5 -21.5t8.5 -60.5q59 -176 154 -391q27 -61 32 -66
q14 10 39 78q10 25 58 148t59 153q37 92 37 127q0 25 -37 31l-47 6q-9 10 -7.5 27.5t11.5 23.5q94 -6 154 -6q58 0 143 6q10 -6 11.5 -24t-7.5 -27l-31 -4q-13 -2 -24.5 -6.5t-20.5 -9t-18.5 -15.5t-15.5 -18t-16.5 -25.5t-15 -28t-18 -36t-20.5 -39.5q-20 -38 -90.5 -202
t-98.5 -235q-7 -19 -29.5 -73.5t-37.5 -94.5q-5 -8 -21 -8q-18 0 -26 8q-20 70 -78 213z" />
    <glyph glyph-name="w" unicode="w" horiz-adv-x="1351" 
d="M342 145l-188 463q-34 83 -58.5 111t-64.5 37l-33 8q-8 7 -7.5 25t13.5 24q95 -6 182 -6q96 0 179 6q12 -6 13.5 -24t-9.5 -25l-47 -8q-21 -3 -33.5 -11.5t-12.5 -17.5q0 -27 33 -106l127 -314q8 -20 17.5 -41.5t14.5 -33t5 -13.5q8 5 47 98l101 248q33 80 18 119
q-22 56 -94 72l-33 8q-10 9 -8 26.5t14 22.5q76 -6 170 -6q90 0 195 6q13 -4 14.5 -23t-8.5 -26l-43 -8q-60 -12 -67 -26t14 -68q22 -65 155 -383q21 -54 27 -58q8 8 29 58q40 88 139 362q20 59 20 88q0 21 -37 27l-51 8q-12 8 -10.5 26t12.5 23q88 -6 162 -6q65 0 133 6
q12 -6 13.5 -24t-7.5 -25l-41 -8q-35 -7 -55.5 -32t-54.5 -97q-86 -180 -193 -465q-55 -139 -69 -187q-11 -8 -27 -8q-15 0 -23 8q-39 122 -84 226l-98 235q-7 17 -18 42.5t-19.5 44t-9.5 18.5t-9 -17.5t-18.5 -41.5t-17.5 -42l-106 -256q-57 -136 -82 -209q-8 -8 -25 -8
t-25 8q-7 24 -61 170z" />
    <glyph glyph-name="x" unicode="x" horiz-adv-x="884" 
d="M362 408l-184 260q-52 76 -123 88l-32 6q-9 7 -7.5 27t11.5 24q120 -6 178 -6q54 0 174 6q10 -6 10.5 -25t-8.5 -26l-31 -6q-40 -7 -42.5 -21t24.5 -51l98 -143q16 -24 27 -35q9 7 118 174q25 40 22 53.5t-38 22.5l-24 6q-9 9 -6.5 28t14.5 23q70 -6 149 -6q92 0 150 6
q12 -6 12.5 -25t-8.5 -26l-31 -6q-77 -16 -102 -35q-52 -43 -193 -234q-19 -25 -18.5 -36t20.5 -39l191 -269q36 -51 65.5 -72t69.5 -24l33 -2q9 -9 7.5 -28t-11.5 -23q-114 6 -203 6q-96 0 -195 -6q-12 4 -14.5 24t8.5 27l59 6q43 4 50 19t-15 43l-106 153q-36 53 -45 60
q-17 -17 -37 -50l-86 -135q-32 -49 -31.5 -66.5t37.5 -23.5l35 -6q9 -7 7.5 -27t-11.5 -24q-76 6 -152 6q-69 0 -149 -6q-12 6 -13.5 25.5t9.5 25.5l47 8q51 8 102 62q24 25 94 121t88 118q14 18 15.5 27t-9.5 27z" />
    <glyph glyph-name="y" unicode="y" horiz-adv-x="897" 
d="M139 -510q-43 0 -66.5 24.5t-23.5 63.5q0 40 23 61t59 21h39q45 0 68 37q81 126 118 227q21 56 21 88q0 29 -6.5 55t-28.5 87l-160 438q-34 93 -50 116q-25 35 -71 44l-51 10q-9 7 -7.5 27t13.5 24q99 -6 195 -6q79 0 178 6q12 -4 13.5 -24t-9.5 -27l-51 -10
q-45 -9 -45 -27q0 -21 59 -193l66 -188q51 -141 59 -145q13 9 76 151l70 162q71 167 71 205q0 27 -49 35l-63 10q-11 7 -9.5 27t13.5 24q99 -6 180 -6q70 0 156 6q12 -6 13.5 -24t-9.5 -27l-35 -6q-48 -9 -82.5 -54.5t-91.5 -162.5l-115 -236q-150 -302 -336 -717
q-43 -96 -131 -96z" />
    <glyph glyph-name="z" unicode="z" horiz-adv-x="772" 
d="M463 0h-184q-179 0 -216 -6q-12 6 -12 20q30 36 90.5 128t106.5 173l217 369q22 43 17 52t-36 9h-141q-104 0 -141 -30q-38 -29 -74 -119q-7 -9 -25 -6.5t-22 14.5q3 43 25 124t43 116q12 8 24 0q4 -25 29.5 -31t116.5 -6h290q94 0 125 6q14 -7 11 -20q-64 -88 -152 -234
l-248 -416q-32 -55 -26 -68.5t65 -13.5h70q55 0 88.5 2t80 17t72.5 43q24 26 66 119q10 6 25.5 2.5t19.5 -15.5q-14 -75 -35 -140.5t-41 -94.5q-102 6 -229 6z" />
    <glyph glyph-name="braceleft" unicode="{" horiz-adv-x="655" 
d="M442 768q0 -176 -153 -215v-8q153 -39 153 -215q0 -54 -18 -211q-2 -19 -8.5 -64t-9.5 -77.5t-3 -63.5q0 -27 3 -49t14 -47.5t29 -44t50 -34t76 -22.5q7 -6 7 -19.5t-7 -21.5q-290 0 -290 258q0 72 16 220q14 126 14 202q0 26 -2 44t-12 42t-28 39.5t-52.5 28.5t-83.5 16
q-7 9 -7 22.5t7 22.5q49 3 83.5 16t52.5 28.5t28 39.5t12 42t2 44q0 32 -14 205q-2 18 -6.5 67t-7 84t-2.5 66q0 258 290 258q7 -7 7 -20t-7 -21q-54 -9 -90.5 -29t-53 -49t-22.5 -56t-6 -62q0 -58 21 -205q18 -126 18 -211z" />
    <glyph glyph-name="bar" unicode="|" horiz-adv-x="489" 
d="M305 1536v-2048h-121v2048h121z" />
    <glyph glyph-name="braceright" unicode="}" horiz-adv-x="655" 
d="M213 768q0 85 18 211q21 147 21 205q0 35 -6 62t-22.5 56t-53 49t-90.5 29q-8 8 -8 21t8 20q291 0 291 -258q0 -31 -2.5 -67t-7.5 -82t-7 -68q-14 -173 -14 -205q0 -26 2 -44t12 -42t28 -39.5t52.5 -28.5t83.5 -16q8 -9 8 -22.5t-8 -22.5q-49 -3 -83.5 -16t-52.5 -28.5
t-28 -39.5t-12 -42t-2 -44q0 -76 14 -202q17 -157 17 -220q0 -258 -291 -258q-8 8 -8 21.5t8 19.5q44 7 76 22.5t50 34t29 44t14 47.5t3 49q0 31 -3 63.5t-9.5 77.5t-8.5 64q-18 157 -18 211q0 176 154 215v8q-154 39 -154 215z" />
    <glyph glyph-name="asciitilde" unicode="~" horiz-adv-x="1024" 
d="M659 369h-253q-76 0 -109.5 -26t-73.5 -107q-20 -9 -40.5 -1.5t-26.5 29.5q44 113 92 164q43 43 117 43h253q76 0 109.5 26t73.5 107q20 9 40.5 1t26.5 -30q-49 -126 -94 -167q-44 -39 -115 -39z" />
    <glyph glyph-name="exclamdown" unicode="&#xa1;" horiz-adv-x="450" 
d="M225 -545q-54 0 -77 12t-23 48q0 29 14 182l60 661q9 9 27 9t26 -9l59 -661q15 -163 15 -182q0 -36 -23.5 -48t-77.5 -12zM225 573q-46 0 -80 31t-34 82q0 53 32.5 87t81.5 34q51 0 83 -35t32 -86q0 -50 -31.5 -81.5t-83.5 -31.5z" />
    <glyph glyph-name="cent" unicode="&#xa2;" horiz-adv-x="1024" 
d="M643 1004l-82 -682q37 -9 82 -9q56 0 104 19t74 40.5t58 55.5q13 3 23.5 -5.5t8.5 -19.5q-114 -186 -362 -186l-25 -209q-13 -8 -34 -8t-33 8l26 215q-155 19 -252.5 125.5t-97.5 276.5q0 132 61.5 232.5t163 155t228.5 64.5l20 176q14 7 34 7t34 -7l-21 -172
q63 0 164 -22q45 -39 45 -105q0 -29 -8 -50t-16 -21q-14 0 -29 18q-67 80 -166 103zM498 340l80 670q-131 2 -217.5 -85t-86.5 -235q0 -69 22.5 -135t75 -125.5t126.5 -89.5z" />
    <glyph glyph-name="sterling" unicode="&#xa3;" horiz-adv-x="1024" 
d="M70 682h166q21 0 25.5 3t2.5 15q-2 35 -2 121q0 213 122.5 351.5t313.5 138.5q72 0 115 -31q23 -20 23 -47q0 -29 -22 -57.5t-38 -28.5q-11 0 -31 14q-80 64 -139 64q-77 0 -134.5 -75.5t-57.5 -211.5q0 -61 14 -225q2 -20 8.5 -25.5t32.5 -5.5h301q14 -9 14 -33.5
t-14 -32.5h-299q-28 0 -35.5 -4.5t-7.5 -23.5q0 -148 -51 -247t-144 -177l3 -4q75 10 163 -2q45 -6 181 -64q124 -53 188 -53q41 0 62 21t22 53.5t-4 72.5q-6 35 8.5 53.5t40.5 18.5q32 0 53 -27t21 -65q0 -82 -97 -155.5t-225 -73.5q-44 0 -93.5 18t-129.5 61
q-140 76 -211 76q-70 0 -70 -67q0 -20 -28.5 -38t-48.5 -18q-37 0 -37 37q0 53 98 133q73 63 107 171.5t34 275.5q0 18 -5 23t-27 5h-168q-12 9 -12 33t12 33z" />
    <glyph glyph-name="currency" unicode="&#xa4;" horiz-adv-x="1024" 
d="M514 1010q-132 0 -229 -101.5t-97 -242.5q0 -145 98 -244.5t228 -99.5t228 100t98 244q0 141 -98.5 242.5t-227.5 101.5zM514 1104q142 0 256 -82l84 104q37 -11 66.5 -39t33.5 -59l-92 -92q94 -115 94 -270q0 -156 -94 -271l92 -92q-4 -31 -33.5 -59t-66.5 -39l-84 104
q-114 -82 -256 -82t-256 82l-84 -104q-37 11 -66.5 39t-33.5 59l92 92q-94 115 -94 271q0 155 94 270l-92 92q4 31 33.5 59t66.5 39l84 -104q114 82 256 82z" />
    <glyph glyph-name="yen" unicode="&#xa5;" horiz-adv-x="1024" 
d="M920 428h-310v-176q0 -125 14 -161t74 -42l76 -8q9 -7 7.5 -25t-11.5 -22q-111 6 -238 6q-118 0 -229 -6q-10 4 -11.5 22t7.5 25l76 8q62 7 75 42t13 161v176h-311q-10 9 -10 33t10 33h307v165h-307q-10 9 -10 33t10 33h278l-209 354q-53 91 -80 119t-84 41l-43 10
q-8 7 -7.5 22t13.5 21q76 -6 222 -6q118 0 194 6q10 -4 11 -20t-7 -23l-78 -14q-40 -8 -40 -31q0 -18 71 -145l105 -187q8 -15 18.5 -34.5t17 -32t13.5 -24t11.5 -17.5t6.5 -6q20 0 64 80l78 143q106 200 106 217t-10 24.5t-37 12.5l-78 14q-9 7 -7.5 23t13.5 20
q91 -6 193 -6q76 0 153 6q10 -6 11 -20t-7 -23l-49 -10q-18 -4 -35.5 -16t-31 -25.5t-34 -44t-32.5 -50t-39 -65.5l-182 -313h279q10 -9 10 -33t-10 -33h-306v-165h306q10 -9 10 -33t-10 -33z" />
    <glyph glyph-name="brokenbar" unicode="&#xa6;" horiz-adv-x="489" 
d="M305 1382v-716h-121v716h121zM305 358v-716h-121v716h121z" />
    <glyph glyph-name="section" unicode="&#xa7;" horiz-adv-x="1036" 
d="M379 -254q-72 0 -118 29t-46 73q0 29 20 51.5t52 22.5q30 0 51 -18q87 -72 174 -72q51 0 96 35t45 92q0 20 -5 41t-18.5 45t-24 43t-34 47.5t-35.5 44t-43 47.5t-41 42l-44 44l-39 39q-51 51 -84.5 87.5t-71.5 87.5t-60 97t-36.5 104t-14.5 120q0 91 44.5 187t117.5 173
t175 126.5t208 49.5q78 0 118 -30t40 -64q0 -23 -20 -44t-48 -21q-36 0 -57 16q-86 59 -168 59q-51 0 -86 -33.5t-35 -88.5q0 -74 59 -149.5t232 -233.5q131 -121 191.5 -233.5t60.5 -244.5q0 -75 -26 -155.5t-76.5 -154.5t-117 -132.5t-154 -93.5t-181.5 -35zM461 459
q160 -161 217 -255t57 -214q57 51 78 108.5t21 128.5q0 132 -60.5 237t-189.5 228q-166 159 -220.5 249.5t-54.5 215.5q-54 -45 -80 -95.5t-26 -123.5q0 -44 6.5 -81t29.5 -97.5t79 -137t143 -163.5z" />
    <glyph glyph-name="dieresis" unicode="&#xa8;" 
d="M190 1049q-43 0 -71 26.5t-29 73.5q-2 44 27 75t73 31q43 0 73 -30t30 -68q0 -47 -29.5 -77.5t-73.5 -30.5zM549 1049q-44 0 -74 28t-31 74q0 43 30.5 73.5t74.5 30.5q42 0 70 -29.5t28 -66.5q0 -48 -27 -79t-71 -31z" />
    <glyph glyph-name="copyright" unicode="&#xa9;" horiz-adv-x="1617" 
d="M573 684q0 -161 84.5 -259.5t221.5 -98.5q166 0 251 194q9 8 22 6t19 -12q-3 -42 -20 -104t-35 -93q-153 -47 -250 -47q-109 0 -196.5 34.5t-140.5 92t-81 128t-28 147.5q0 182 131.5 296.5t327.5 114.5q50 0 104 -7.5t94 -15.5t49 -9q4 -27 8 -56.5t8.5 -68.5t8.5 -66
q-6 -10 -21 -12t-22 6q-55 174 -242 174q-140 0 -216.5 -97.5t-76.5 -246.5zM809 -33q-202 0 -367 95.5t-257.5 257.5t-92.5 356q0 145 54.5 275.5t149 225.5t228.5 151t285 56t285 -56t228.5 -151t149 -225.5t54.5 -275.5q0 -194 -92.5 -356t-257.5 -257.5t-367 -95.5z
M209 678q0 -175 78.5 -319.5t216.5 -228t305 -83.5t305 83.5t216.5 228t78.5 319.5q0 174 -78.5 317.5t-216.5 226.5t-305 83t-305 -83t-216.5 -226.5t-78.5 -317.5z" />
    <glyph glyph-name="ordfeminine" unicode="&#xaa;" horiz-adv-x="679" 
d="M412 877v24q0 67 -22 105t-87 38q-35 0 -60.5 -15.5t-31.5 -47.5q-7 -44 -18 -53q-15 -10 -48 -22.5t-45 -12.5t-20 7.5t-8 19.5q0 46 61 94q45 36 110.5 64t125.5 28q96 0 133.5 -46t34.5 -130l-11 -250q-2 -55 13.5 -85t56.5 -30q28 0 59 21q12 0 17.5 -10t-0.5 -19
q-30 -32 -70.5 -48.5t-77.5 -16.5q-51 0 -94 40q-19 19 -31 19q-11 0 -32 -12q-90 -47 -144 -47q-77 0 -116 40.5t-39 102.5q0 38 22.5 68.5t56.5 44.5q55 22 133 48l87 29q28 10 36.5 21t8.5 31zM401 647l5 107q1 26 -15.5 27t-56.5 -15q-2 -1 -18 -6t-20.5 -7t-19 -7.5
t-19.5 -9.5t-16.5 -11t-16 -14t-10.5 -16t-8.5 -20t-2.5 -24q0 -32 22.5 -60t69.5 -28q57 0 90 33q16 19 16 51z" />
    <glyph glyph-name="guillemotleft" unicode="&#xab;" horiz-adv-x="774" 
d="M385 733l-143 -287q-11 -24 0 -49l143 -291q-9 -20 -35 -26q-23 29 -74.5 96t-91 117t-78.5 96q-26 34 0 64q46 55 244 307q26 -4 35 -27zM682 733l-143 -287q-11 -24 0 -49l143 -291q-9 -20 -35 -26q-23 29 -74.5 96t-91 117t-78.5 96q-26 34 0 64q46 55 244 307
q26 -4 35 -27z" />
    <glyph glyph-name="logicalnot" unicode="&#xac;" horiz-adv-x="1024" 
d="M836 102v422h-768v101h888v-523h-120z" />
    <glyph glyph-name="registered" unicode="&#xae;" horiz-adv-x="655" 
d="M242 1069v117q0 38 -23 41h-8q-9 18 2 22q86 4 115 4q102 0 102 -69q0 -20 -11.5 -35.5t-25.5 -22.5q-6 -3 0 -14q32 -68 51 -82q14 -10 19 -12q3 0 3 -6t-3 -8q-15 -3 -29 -3q-51 0 -76 43q-6 9 -15.5 27.5t-12.5 24.5q-6 12 -19 12q-12 0 -12 -10v-29q0 -25 4 -32.5
t25 -10.5l6 -2q3 -2 3 -10t-3 -10q-9 0 -29 1t-33 1q-12 0 -31.5 -1t-27.5 -1q-4 1 -4.5 10t2.5 10l8 2q17 4 20 10.5t3 32.5zM299 1208v-61q0 -10 3.5 -12t21.5 -2q22 0 31.5 12.5t9.5 28.5q0 24 -10.5 37.5t-28.5 13.5t-22.5 -3.5t-4.5 -13.5zM328 1386q110 0 188 -76.5
t78 -183.5t-78 -183.5t-188 -76.5t-188.5 76.5t-78.5 183.5t78.5 183.5t188.5 76.5zM328 1341q-84 0 -143.5 -62.5t-59.5 -152.5q0 -89 60 -152t143 -63t142.5 63t59.5 152q0 90 -59 152.5t-143 62.5z" />
    <glyph glyph-name="macron" unicode="&#xaf;" 
d="M580 1073h-418q-17 22 -17 58.5t17 58.5h418q14 -22 14 -58.5t-14 -58.5z" />
    <glyph glyph-name="macron" unicode="&#x2c9;" 
d="M580 1073h-418q-17 22 -17 58.5t17 58.5h418q14 -22 14 -58.5t-14 -58.5z" />
    <glyph glyph-name="degree" unicode="&#xb0;" horiz-adv-x="618" 
d="M309 1311q104 0 176 -66.5t72 -171.5q0 -110 -71 -173.5t-177 -63.5t-177 63.5t-71 173.5q0 105 72 171.5t176 66.5zM309 1247q-62 0 -102.5 -48.5t-40.5 -125.5t40.5 -125.5t102.5 -48.5t103 48.5t41 125.5t-41 125.5t-103 48.5z" />
    <glyph glyph-name="plusminus" unicode="&#xb1;" horiz-adv-x="1024" 
d="M907 100v-100h-788v100h788zM573 172h-120v348h-334v101h334v333h120v-333h334v-101h-334v-348z" />
    <glyph glyph-name="twosuperior" unicode="&#xb2;" 
d="M303 743h146q81 0 122 13.5t72 60.5q26 11 39 -14q-9 -21 -22 -51.5t-20.5 -48t-18 -35.5t-19.5 -27q-102 4 -231 4h-148q-91 0 -153 -4q-11 11 -11 14q0 13 4 19q87 54 213 180q189 189 189 340q0 79 -42 125.5t-112 46.5q-108 0 -184 -129q-12 -7 -25.5 -0.5
t-13.5 18.5q41 95 115 145t170 50q111 0 176 -58.5t65 -152.5q0 -67 -34.5 -132t-120.5 -151l-115 -114q-43 -43 -56.5 -58.5t-13.5 -23.5q0 -17 29 -17z" />
    <glyph glyph-name="threesuperior" unicode="&#xb3;" 
d="M520 874q0 76 -42 129.5t-128 53.5q-83 0 -147 -60q-38 19 -27 56q159 65 217 104q64 45 64 115q0 51 -31.5 79.5t-77.5 28.5q-101 0 -174 -118q-28 -3 -35 22q39 77 108.5 121.5t155.5 44.5q87 0 142 -43t55 -102q0 -48 -32.5 -86.5t-116.5 -77.5q-7 -9 -2 -15t18 -6
q82 0 141.5 -53t59.5 -141q0 -146 -142 -252q-75 -55 -155.5 -82t-139.5 -27q-60 0 -102.5 19t-42.5 61q0 28 19.5 47t48.5 19q34 0 67 -54q22 -36 66 -36q32 0 71 17t76 47t61.5 80t24.5 109z" />
    <glyph glyph-name="acute" unicode="&#xb4;" 
d="M563 1221l-256 -267q-11 -2 -22.5 5.5t-12.5 17.5l177 334q26 49 49 49q24 0 63 -31q35 -28 35 -53q0 -22 -33 -55z" />
    <glyph glyph-name="mu" unicode="&#xb5;" horiz-adv-x="1048" 
d="M326 643v-342q0 -45 4.5 -79t17.5 -64.5t34 -50t54.5 -30.5t79.5 -11q42 0 87.5 16t78.5 45q41 38 41 109v346q0 34 -1 56t-6 39t-8 25.5t-15 17t-19 12t-27 11.5l-26 11q-11 6 -10.5 22.5t12.5 22.5q65 2 136 12.5t103 24.5q16 -3 19 -15q-7 -68 -7 -178v-344
q0 -130 11.5 -176.5t52.5 -46.5q32 0 80 10q10 -8 10 -30.5t-12 -28.5l-27.5 -5.5t-31 -6t-30.5 -6.5t-33.5 -7.5t-31 -7.5t-32.5 -9.5t-29 -10t-29 -11.5t-24 -12q-18 0 -25 14v84q0 29 -18 29q-37 -24 -56 -35t-62 -32t-88 -30.5t-93 -9.5q-50 0 -115 29q-10 2 -15.5 -5.5
t-5.5 -27.5v-117q0 -50 17.5 -111t35 -105.5t17.5 -55.5q0 -34 -46.5 -81.5t-78.5 -47.5q-41 0 -41 64v1056q0 101 -8.5 127.5t-52.5 46.5l-25 11q-9 7 -7.5 24t11.5 21q122 3 219 37q18 -3 21 -15q-6 -53 -6 -178z" />
    <glyph glyph-name="mu" unicode="&#x3bc;" horiz-adv-x="1048" 
d="M326 643v-342q0 -45 4.5 -79t17.5 -64.5t34 -50t54.5 -30.5t79.5 -11q42 0 87.5 16t78.5 45q41 38 41 109v346q0 34 -1 56t-6 39t-8 25.5t-15 17t-19 12t-27 11.5l-26 11q-11 6 -10.5 22.5t12.5 22.5q65 2 136 12.5t103 24.5q16 -3 19 -15q-7 -68 -7 -178v-344
q0 -130 11.5 -176.5t52.5 -46.5q32 0 80 10q10 -8 10 -30.5t-12 -28.5l-27.5 -5.5t-31 -6t-30.5 -6.5t-33.5 -7.5t-31 -7.5t-32.5 -9.5t-29 -10t-29 -11.5t-24 -12q-18 0 -25 14v84q0 29 -18 29q-37 -24 -56 -35t-62 -32t-88 -30.5t-93 -9.5q-50 0 -115 29q-10 2 -15.5 -5.5
t-5.5 -27.5v-117q0 -50 17.5 -111t35 -105.5t17.5 -55.5q0 -34 -46.5 -81.5t-78.5 -47.5q-41 0 -41 64v1056q0 101 -8.5 127.5t-52.5 46.5l-25 11q-9 7 -7.5 24t11.5 21q122 3 219 37q18 -3 21 -15q-6 -53 -6 -178z" />
    <glyph glyph-name="paragraph" unicode="&#xb6;" horiz-adv-x="1024" 
d="M750 903v-950q0 -60 -4.5 -110t-20 -104.5t-41 -92t-70.5 -62t-106 -24.5q-71 0 -125.5 36.5t-54.5 112.5q0 41 19.5 69t39.5 38q33 0 66 -19.5t39 -42.5q-1 -1 -4 -5t-4.5 -5.5t-5 -6t-5 -8t-4 -9t-3.5 -10.5t-2 -11.5t-1 -13.5q0 -29 19.5 -46.5t47.5 -17.5q20 0 40 11
t42 37.5t36 81t14 130.5v289q0 38 -10.5 52t-33.5 14q-212 0 -354.5 116t-142.5 305q0 221 150.5 335t418.5 114q190 0 248 -10q9 -6 9 -21.5t-9 -21.5l-80 -15q-76 -13 -92 -34t-16 -101z" />
    <glyph glyph-name="periodcentered" unicode="&#xb7;" horiz-adv-x="512" 
d="M256 303q-46 0 -80.5 31.5t-34.5 81.5q0 52 32.5 86.5t82.5 34.5q51 0 83 -35t32 -86q0 -50 -31.5 -81.5t-83.5 -31.5z" />
    <glyph glyph-name="periodcentered" unicode="&#x2219;" horiz-adv-x="512" 
d="M256 303q-46 0 -80.5 31.5t-34.5 81.5q0 52 32.5 86.5t82.5 34.5q51 0 83 -35t32 -86q0 -50 -31.5 -81.5t-83.5 -31.5z" />
    <glyph glyph-name="cedilla" unicode="&#xb8;" 
d="M418 0h63l-69 -113q-14 -25 16 -43q84 -57 84 -129q0 -67 -57.5 -113t-130.5 -46q-50 0 -77.5 17.5t-27.5 45.5q0 17 12.5 32t32.5 15q19 0 51 -26.5t43 -26.5q20 0 35 13.5t15 43.5q0 34 -32.5 68t-80.5 53v10z" />
    <glyph glyph-name="onesuperior" unicode="&#xb9;" 
d="M313 821v396q0 63 -11 87.5t-52 28.5l-64 6q-9 6 -9.5 19.5t7.5 19.5q27 4 54.5 10.5t47.5 11.5t45.5 13.5l37.5 12.5t36 13t29 11q15 0 15 -10q-5 -54 -5 -150v-469q0 -81 13 -103.5t73 -29.5l35 -4q8 -6 7.5 -22.5t-9.5 -20.5q-122 4 -188 4t-180 -4q-9 4 -9.5 20.5
t7.5 22.5l34 4q60 7 73 29.5t13 103.5z" />
    <glyph glyph-name="ordmasculine" unicode="&#xba;" horiz-adv-x="792" 
d="M403 1106q139 0 231.5 -85t92.5 -216q0 -137 -92.5 -225t-243.5 -88q-143 0 -234 83.5t-91 215.5q0 136 96 225.5t241 89.5zM387 1053q-72 0 -121 -68t-49 -174q0 -67 19 -125.5t63.5 -99.5t106.5 -41q46 0 80.5 22t53 58t27 75.5t8.5 81.5q0 44 -10.5 89.5t-31.5 87
t-59 68t-87 26.5z" />
    <glyph glyph-name="guillemotright" unicode="&#xbb;" horiz-adv-x="774" 
d="M236 446l-144 287q9 23 35 27q198 -252 244 -307q26 -30 0 -64q-39 -46 -78.5 -96t-91 -117t-74.5 -96q-26 6 -35 26l144 291q11 25 0 49zM532 446l-143 287q9 23 35 27q198 -252 244 -307q26 -30 0 -64q-39 -46 -78.5 -96t-91 -117t-74.5 -96q-26 6 -35 26l143 291
q11 25 0 49z" />
    <glyph glyph-name="onequarter" unicode="&#xbc;" horiz-adv-x="1597" 
d="M283 -29q599 910 893 1368q43 0 63 -47q-455 -685 -901 -1374q-25 0 -39 14.5t-16 38.5zM225 682v395q0 63 -11 88t-52 29l-64 6q-9 6 -9.5 19.5t7.5 19.5q27 4 54.5 10.5t47.5 11.5t45.5 13.5l37.5 12.5t36 13t29 11q14 0 14 -11q-4 -43 -4 -149v-469q0 -81 13 -103.5
t73 -29.5l35 -4q8 -6 7.5 -22.5t-9.5 -20.5q-122 4 -188 4q-67 0 -181 -4q-9 4 -9.5 20.5t7.5 22.5l35 4q60 7 73 29.5t13 103.5zM973 297h184q25 0 31 5.5t6 27.5v223q0 18 12 25q40 22 94 22q16 0 19.5 -8.5t3.5 -30.5v-235q0 -19 5.5 -24t25.5 -5h76q12 -7 12 -28.5
t-12 -30.5h-68q-27 0 -33 -5.5t-6 -27.5v-29q0 -90 10 -108.5t70 -24.5l37 -4q6 -9 5.5 -24t-9.5 -19q-86 4 -176 4q-129 0 -183 -4q-9 4 -10.5 19t6.5 24l37 4q61 7 72.5 27t11.5 106v25q0 24 -6 30.5t-33 6.5h-317q-8 0 -13.5 5.5t-5.5 14.5q0 17 19 41l436 561
q19 25 43 25q45 0 45 -11q0 -4 -4 -12l-422 -540q-10 -19 -3.5 -22t40.5 -3z" />
    <glyph glyph-name="onehalf" unicode="&#xbd;" horiz-adv-x="1597" 
d="M266 -29q599 910 893 1368q44 0 64 -47q-455 -685 -901 -1374q-26 0 -40 14.5t-16 38.5zM240 682v395q0 63 -11.5 88t-52.5 29l-63 6q-9 6 -9.5 19.5t7.5 19.5q91 14 249 72q15 0 15 -11q-4 -43 -4 -149v-469q0 -81 13 -103.5t73 -29.5l35 -4q8 -6 7 -22.5t-10 -20.5
q-122 4 -188 4t-180 -4q-9 4 -9.5 20.5t7.5 22.5l35 4q60 7 73 29.5t13 103.5zM1153 98h145q81 0 122.5 13.5t72.5 60.5q26 11 39 -14q-9 -21 -22 -51.5t-20.5 -48t-18 -35.5t-19.5 -27q-102 4 -231 4h-148q-91 0 -153 -4q-11 11 -11 14q0 13 4 19q87 54 213 180
q189 189 189 340q0 79 -42 125.5t-112 46.5q-108 0 -184 -129q-12 -7 -25.5 -0.5t-13.5 18.5q41 95 115 145t170 50q111 0 176 -58.5t65 -152.5q0 -67 -34.5 -132t-120.5 -151l-115 -114q-43 -43 -56.5 -58.5t-13.5 -23.5q0 -17 29 -17z" />
    <glyph glyph-name="threequarters" unicode="&#xbe;" horiz-adv-x="1597" 
d="M354 -29q599 910 893 1368q44 0 64 -47q-455 -685 -901 -1374q-26 0 -40 14.5t-16 38.5zM510 735q0 76 -42 129.5t-128 53.5q-83 0 -147 -60q-38 19 -27 55q155 63 217 105q63 44 63 115q0 51 -31 79.5t-77 28.5q-100 0 -174 -119q-28 -3 -35 23q39 77 108.5 121.5
t155.5 44.5t141.5 -43.5t55.5 -102.5q0 -48 -32.5 -86.5t-117.5 -77.5q-7 -9 -1.5 -14.5t18.5 -5.5q82 0 141 -53t59 -142q0 -146 -141 -251q-75 -55 -155.5 -82t-139.5 -27q-60 0 -102.5 19t-42.5 61q0 28 19 46.5t48 18.5q36 0 68 -53q23 -37 65 -37q32 0 71.5 17t76 47.5
t61.5 80.5t25 109zM1014 297h184q25 0 31 5.5t6 27.5v223q0 18 12 25q40 22 94 22q16 0 19.5 -8.5t3.5 -30.5v-235q0 -19 5.5 -24t25.5 -5h75q12 -7 12 -28.5t-12 -30.5h-67q-27 0 -33 -5.5t-6 -27.5v-29q0 -90 10 -108.5t70 -24.5l37 -4q6 -9 5.5 -24t-9.5 -19
q-86 4 -177 4q-128 0 -182 -4q-9 4 -10.5 19t6.5 24l37 4q61 7 72.5 27t11.5 106v25q0 24 -6 30.5t-33 6.5h-317q-8 0 -13.5 5.5t-5.5 14.5q0 17 19 41l436 561q19 25 43 25q45 0 45 -11q0 -4 -4 -12l-422 -540q-11 -19 -4 -22t41 -3z" />
    <glyph glyph-name="questiondown" unicode="&#xbf;" horiz-adv-x="657" 
d="M444 -545q-81 0 -163 58.5t-135.5 156.5t-53.5 203q0 76 24.5 122.5t53.5 61.5l162 86q71 38 71 90q0 37 -20 119q6 12 20 15t23 -5q27 -44 50.5 -102.5t23.5 -99.5q0 -30 -8 -53t-25.5 -40.5t-33.5 -28.5t-44 -26l-100 -53q-113 -59 -113 -149q0 -80 45 -125
q40 -40 94.5 -53t143.5 -13q18 0 42.5 -25.5t24.5 -60.5q0 -32 -22 -55t-60 -23zM401 573q-46 0 -80 31t-34 82q0 53 32.5 87t81.5 34q51 0 83 -35t32 -86q0 -50 -31.5 -81.5t-83.5 -31.5z" />
    <glyph glyph-name="Agrave" unicode="&#xc0;" horiz-adv-x="1275" 
d="M924 197l-90 278q-11 34 -24.5 42.5t-59.5 8.5h-310q-39 0 -53.5 -8.5t-24.5 -40.5l-71 -215q-45 -134 -45 -170q0 -20 12 -29t47 -12l68 -6q11 -7 10 -26t-14 -25q-29 2 -213 6q-32 0 -197 -6q-9 6 -11 24.5t7 26.5l68 6q85 7 122 101q11 28 41 101t66 163.5t74 191.5
l209 553q41 106 34 146q55 16 107 77q26 0 31 -18q30 -98 90 -274l280 -824q44 -131 75.5 -170t98.5 -47l56 -6q10 -8 9 -26t-9 -25q-126 6 -248 6q-59 0 -236 -6q-12 6 -13.5 25t9.5 26l60 6q71 7 71 37q0 29 -26 109zM557 1014l-129 -357q-12 -35 -6 -42t49 -7h252
q44 0 51.5 11.5t-6.5 52.5l-111 334q-32 97 -47 129h-4q-9 -15 -49 -121zM735 1446l-342 147q-42 17 -51 33q-17 34 16 82q32 49 54 49q14 0 55 -26l289 -236q4 -16 -3 -31t-18 -18z" />
    <glyph glyph-name="Aacute" unicode="&#xc1;" horiz-adv-x="1275" 
d="M924 197l-90 278q-11 34 -24.5 42.5t-59.5 8.5h-310q-39 0 -53.5 -8.5t-24.5 -40.5l-71 -215q-45 -134 -45 -170q0 -20 12 -29t47 -12l68 -6q11 -7 10 -26t-14 -25q-29 2 -213 6q-32 0 -197 -6q-9 6 -11 24.5t7 26.5l68 6q85 7 122 101q11 28 41 101t66 163.5t74 191.5
l209 553q41 106 34 146q55 16 107 77q26 0 31 -18q30 -98 90 -274l280 -824q44 -131 75.5 -170t98.5 -47l56 -6q10 -8 9 -26t-9 -25q-126 6 -248 6q-59 0 -236 -6q-12 6 -13.5 25t9.5 26l60 6q71 7 71 37q0 29 -26 109zM557 1014l-129 -357q-12 -35 -6 -42t49 -7h252
q44 0 51.5 11.5t-6.5 52.5l-111 334q-32 97 -47 129h-4q-9 -15 -49 -121zM887 1583l-342 -147q-11 3 -18 18t-3 31l289 235q42 27 55 27t30 -12t28 -35q26 -51 14 -84q-14 -18 -53 -33z" />
    <glyph glyph-name="Acircumflex" unicode="&#xc2;" horiz-adv-x="1275" 
d="M924 197l-90 278q-11 34 -24.5 42.5t-59.5 8.5h-310q-39 0 -53.5 -8.5t-24.5 -40.5l-71 -215q-45 -134 -45 -170q0 -20 12 -29t47 -12l68 -6q11 -7 10 -26t-14 -25q-29 2 -213 6q-32 0 -197 -6q-9 6 -11 24.5t7 26.5l68 6q85 7 122 101q11 28 41 101t66 163.5t74 191.5
l209 553q41 106 34 146q55 16 107 77q26 0 31 -18q30 -98 90 -274l280 -824q44 -131 75.5 -170t98.5 -47l56 -6q10 -8 9 -26t-9 -25q-126 6 -248 6q-59 0 -236 -6q-12 6 -13.5 25t9.5 26l60 6q71 7 71 37q0 29 -26 109zM557 1014l-129 -357q-12 -35 -6 -42t49 -7h252
q44 0 51.5 11.5t-6.5 52.5l-111 334q-32 97 -47 129h-4q-9 -15 -49 -121zM373 1468l250 236q41 41 86 0l249 -236q0 -14 -7.5 -27t-16.5 -14l-238 121q-22 10 -32.5 10t-32.5 -10l-232 -121q-12 0 -19 13t-7 28z" />
    <glyph glyph-name="Atilde" unicode="&#xc3;" horiz-adv-x="1275" 
d="M924 197l-90 278q-11 34 -24.5 42.5t-59.5 8.5h-310q-39 0 -53.5 -8.5t-24.5 -40.5l-71 -215q-45 -134 -45 -170q0 -20 12 -29t47 -12l68 -6q11 -7 10 -26t-14 -25q-29 2 -213 6q-32 0 -197 -6q-9 6 -11 24.5t7 26.5l68 6q85 7 122 101q11 28 41 101t66 163.5t74 191.5
l209 553q41 106 34 146q55 16 107 77q26 0 31 -18q30 -98 90 -274l280 -824q44 -131 75.5 -170t98.5 -47l56 -6q10 -8 9 -26t-9 -25q-126 6 -248 6q-59 0 -236 -6q-12 6 -13.5 25t9.5 26l60 6q71 7 71 37q0 29 -26 109zM557 1014l-129 -357q-12 -35 -6 -42t49 -7h252
q44 0 51.5 11.5t-6.5 52.5l-111 334q-32 97 -47 129h-4q-9 -15 -49 -121zM580 1614h125q66 0 95.5 15t67.5 69q9 7 20 4t15 -14q-9 -42 -33 -90.5t-47 -69.5q-22 -20 -44.5 -26.5t-59.5 -6.5h-115q-69 0 -104 -24t-68 -85q-9 -6 -23 -3.5t-18 12.5q6 32 31 91.5t49 80.5
q24 27 48.5 37t60.5 10z" />
    <glyph glyph-name="Adieresis" unicode="&#xc4;" horiz-adv-x="1275" 
d="M924 197l-90 278q-11 34 -24.5 42.5t-59.5 8.5h-310q-39 0 -53.5 -8.5t-24.5 -40.5l-71 -215q-45 -134 -45 -170q0 -20 12 -29t47 -12l68 -6q11 -7 10 -26t-14 -25q-29 2 -213 6q-32 0 -197 -6q-9 6 -11 24.5t7 26.5l68 6q85 7 122 101q11 28 41 101t66 163.5t74 191.5
l209 553q41 106 34 146q55 16 107 77q26 0 31 -18q30 -98 90 -274l280 -824q44 -131 75.5 -170t98.5 -47l56 -6q10 -8 9 -26t-9 -25q-126 6 -248 6q-59 0 -236 -6q-12 6 -13.5 25t9.5 26l60 6q71 7 71 37q0 29 -26 109zM557 1014l-129 -357q-12 -35 -6 -42t49 -7h252
q44 0 51.5 11.5t-6.5 52.5l-111 334q-32 97 -47 129h-4q-9 -15 -49 -121zM459 1423q-48 0 -74.5 26.5t-26.5 78.5q-5 45 25 79.5t76 34.5q45 0 74.5 -34t29.5 -76q0 -46 -29 -77.5t-75 -31.5zM860 1423q-47 0 -76 27t-30 78q0 46 30 80t76 34q45 0 71.5 -33.5t26.5 -76.5
q0 -46 -26 -77.5t-72 -31.5z" />
    <glyph glyph-name="Aring" unicode="&#xc5;" horiz-adv-x="1275" 
d="M924 197l-90 278q-11 34 -24.5 42.5t-59.5 8.5h-310q-39 0 -53.5 -8.5t-24.5 -40.5l-71 -215q-45 -134 -45 -170q0 -20 12 -29t47 -12l68 -6q11 -7 10 -26t-14 -25q-29 2 -213 6q-32 0 -197 -6q-9 6 -11 24.5t7 26.5l68 6q85 7 122 101q11 28 41 101t66 163.5t74 191.5
l209 553q41 106 34 146q55 16 107 77q26 0 31 -18q30 -98 90 -274l280 -824q44 -131 75.5 -170t98.5 -47l56 -6q10 -8 9 -26t-9 -25q-126 6 -248 6q-59 0 -236 -6q-12 6 -13.5 25t9.5 26l60 6q71 7 71 37q0 29 -26 109zM557 1014l-129 -357q-12 -35 -6 -42t49 -7h252
q44 0 51.5 11.5t-6.5 52.5l-111 334q-32 97 -47 129h-4q-9 -15 -49 -121zM647 1778q75 0 124.5 -50t49.5 -116q0 -68 -49.5 -117t-124.5 -49t-124.5 49t-49.5 117q0 66 49.5 116t124.5 50zM555 1612q0 -47 26.5 -78t65.5 -31q40 0 66 31t26 78q0 46 -26 76t-66 30
q-39 0 -65.5 -30.5t-26.5 -75.5z" />
    <glyph glyph-name="AE" unicode="&#xc6;" horiz-adv-x="1740" 
d="M743 1352h537q251 0 276 6q11 -33 33 -271q-6 -11 -24.5 -13t-26.5 7q-31 95 -50 125q-36 55 -106 72q-43 10 -198 10h-148q-44 0 -51.5 -11t-7.5 -71v-409q0 -42 10 -50t57 -8h119q133 0 174 13q20 7 31 21t18 50l17 84q7 9 27 8.5t26 -10.5q0 -21 -4 -92.5t-4 -114.5
q0 -41 4 -109t4 -87q-6 -10 -26 -10.5t-27 8.5l-19 80q-14 65 -63 77q-40 11 -158 11h-119q-46 0 -56.5 -8.5t-10.5 -47.5v-288q0 -90 7.5 -139t29.5 -74q23 -23 74.5 -35.5t175.5 -12.5q119 0 173 6.5t87 24.5q62 34 145 199q9 8 27 3.5t24 -17.5q-10 -55 -40.5 -149
t-51.5 -136q-276 6 -549 6h-188q-91 0 -273 -6q-9 5 -11 23.5t7 27.5l70 6q37 3 57.5 10.5t35.5 21t21 45.5t8.5 70t2.5 109v301q0 44 -12 52t-78 8h-168q-64 0 -80.5 -11.5t-52.5 -78.5q-136 -254 -207 -435q-18 -43 -12.5 -59.5t43.5 -22.5l110 -16q9 -11 8 -28t-10 -23
q-123 6 -225 6q-45 0 -117.5 -2.5t-93.5 -3.5q-12 6 -13.5 24.5t11.5 26.5l63 10q39 6 69 35.5t75 112.5q180 330 497 944q50 92 50 117q0 11 -10.5 16t-34.5 8l-123 19q-10 9 -8 27.5t14 23.5q144 -6 239 -6zM582 739h137q67 0 78.5 8.5t11.5 57.5v399q0 64 -12 74h-11
q-18 -9 -47 -64q-82 -155 -217 -430q-16 -32 -7.5 -38.5t67.5 -6.5z" />
    <glyph glyph-name="Ccedilla" unicode="&#xc7;" horiz-adv-x="1425" 
d="M745 -209l111 178q-282 3 -475 135q-132 89 -211.5 232.5t-79.5 331.5q0 167 69 308t189 234q223 174 553 174q82 0 186 -14t177 -35q41 -10 57 -8q5 -112 29 -301q-7 -10 -26.5 -11.5t-29.5 7.5q-67 299 -420 299q-95 0 -180.5 -23.5t-158.5 -74t-126.5 -123
t-83.5 -175.5t-30 -227q0 -157 47.5 -285t130.5 -210.5t193 -127t237 -44.5q76 0 141.5 19.5t110 48.5t81.5 70t58 78t37 77q10 8 28.5 4.5t24.5 -13.5q-10 -75 -41.5 -161.5t-56.5 -118.5q-22 -3 -72 -21q-41 -14 -124.5 -29t-165.5 -16l-56 -88q-14 -24 17 -45
q88 -60 88 -135q0 -70 -60.5 -119t-136.5 -49q-52 0 -81 19t-29 49q0 17 13.5 33t33.5 16t54 -28t46 -28q20 0 35.5 14.5t15.5 45.5q0 36 -33.5 71t-85.5 56v10z" />
    <glyph glyph-name="Egrave" unicode="&#xc8;" horiz-adv-x="1196" 
d="M262 307v737q0 53 -0.5 81t-3 60t-8 46.5t-13.5 30t-22.5 22t-32.5 11.5t-45 8l-33 4q-9 6 -6.5 26t11.5 25q132 -6 241 -6h385q252 0 277 6q10 -30 32 -273q-6 -9 -24.5 -11t-26.5 7q-30 94 -49 123q-35 54 -106 72q-52 12 -199 12h-147q-45 0 -53.5 -11.5t-8.5 -70.5
v-409q0 -42 10.5 -50t57.5 -8h118q134 0 175 13q20 7 31 21t18 50l16 84q7 9 27 8.5t26 -10.5q0 -21 -4 -92.5t-4 -114.5q0 -41 4 -109t4 -87q-6 -10 -26 -10.5t-27 8.5l-18 80q-14 65 -64 77q-40 11 -158 11h-118q-47 0 -57.5 -8.5t-10.5 -47.5v-288q0 -90 8 -139t31 -74
q23 -23 74.5 -35.5t173.5 -12.5q117 0 172.5 6.5t89.5 24.5q62 34 145 199q10 8 28 3.5t24 -17.5q-10 -53 -41.5 -148t-51.5 -137q-276 6 -548 6h-185q-97 0 -278 -6q-9 5 -11 23.5t7 27.5l67 6q37 3 58.5 10.5t36.5 21t21 45.5t8.5 70t2.5 109zM684 1444l-342 147
q-42 17 -51 33q-15 31 12 84q11 23 28 35t29 12q15 0 56 -26l289 -236q4 -16 -3 -31t-18 -18z" />
    <glyph glyph-name="Eacute" unicode="&#xc9;" horiz-adv-x="1196" 
d="M262 307v737q0 53 -0.5 81t-3 60t-8 46.5t-13.5 30t-22.5 22t-32.5 11.5t-45 8l-33 4q-9 6 -6.5 26t11.5 25q132 -6 241 -6h385q252 0 277 6q10 -30 32 -273q-6 -9 -24.5 -11t-26.5 7q-30 94 -49 123q-35 54 -106 72q-52 12 -199 12h-147q-45 0 -53.5 -11.5t-8.5 -70.5
v-409q0 -42 10.5 -50t57.5 -8h118q134 0 175 13q20 7 31 21t18 50l16 84q7 9 27 8.5t26 -10.5q0 -21 -4 -92.5t-4 -114.5q0 -41 4 -109t4 -87q-6 -10 -26 -10.5t-27 8.5l-18 80q-14 65 -64 77q-40 11 -158 11h-118q-47 0 -57.5 -8.5t-10.5 -47.5v-288q0 -90 8 -139t31 -74
q23 -23 74.5 -35.5t173.5 -12.5q117 0 172.5 6.5t89.5 24.5q62 34 145 199q10 8 28 3.5t24 -17.5q-10 -53 -41.5 -148t-51.5 -137q-276 6 -548 6h-185q-97 0 -278 -6q-9 5 -11 23.5t7 27.5l67 6q37 3 58.5 10.5t36.5 21t21 45.5t8.5 70t2.5 109zM866 1593l-342 -147
q-11 3 -17.5 17.5t-2.5 31.5l289 236q41 26 55 26q12 0 29 -12t28 -35q27 -52 15 -84q-14 -18 -54 -33z" />
    <glyph glyph-name="Ecircumflex" unicode="&#xca;" horiz-adv-x="1196" 
d="M262 307v737q0 53 -0.5 81t-3 60t-8 46.5t-13.5 30t-22.5 22t-32.5 11.5t-45 8l-33 4q-9 6 -6.5 26t11.5 25q132 -6 241 -6h385q252 0 277 6q10 -30 32 -273q-6 -9 -24.5 -11t-26.5 7q-30 94 -49 123q-35 54 -106 72q-52 12 -199 12h-147q-45 0 -53.5 -11.5t-8.5 -70.5
v-409q0 -42 10.5 -50t57.5 -8h118q134 0 175 13q20 7 31 21t18 50l16 84q7 9 27 8.5t26 -10.5q0 -21 -4 -92.5t-4 -114.5q0 -41 4 -109t4 -87q-6 -10 -26 -10.5t-27 8.5l-18 80q-14 65 -64 77q-40 11 -158 11h-118q-47 0 -57.5 -8.5t-10.5 -47.5v-288q0 -90 8 -139t31 -74
q23 -23 74.5 -35.5t173.5 -12.5q117 0 172.5 6.5t89.5 24.5q62 34 145 199q10 8 28 3.5t24 -17.5q-10 -53 -41.5 -148t-51.5 -137q-276 6 -548 6h-185q-97 0 -278 -6q-9 5 -11 23.5t7 27.5l67 6q37 3 58.5 10.5t36.5 21t21 45.5t8.5 70t2.5 109zM319 1489l250 235
q41 41 86 0l250 -235q0 -14 -7.5 -27t-16.5 -14l-238 121q-22 11 -32.5 11t-32.5 -11l-232 -121q-13 0 -20 13t-7 28z" />
    <glyph glyph-name="Edieresis" unicode="&#xcb;" horiz-adv-x="1196" 
d="M262 307v737q0 53 -0.5 81t-3 60t-8 46.5t-13.5 30t-22.5 22t-32.5 11.5t-45 8l-33 4q-9 6 -6.5 26t11.5 25q132 -6 241 -6h385q252 0 277 6q10 -30 32 -273q-6 -9 -24.5 -11t-26.5 7q-30 94 -49 123q-35 54 -106 72q-52 12 -199 12h-147q-45 0 -53.5 -11.5t-8.5 -70.5
v-409q0 -42 10.5 -50t57.5 -8h118q134 0 175 13q20 7 31 21t18 50l16 84q7 9 27 8.5t26 -10.5q0 -21 -4 -92.5t-4 -114.5q0 -41 4 -109t4 -87q-6 -10 -26 -10.5t-27 8.5l-18 80q-14 65 -64 77q-40 11 -158 11h-118q-47 0 -57.5 -8.5t-10.5 -47.5v-288q0 -90 8 -139t31 -74
q23 -23 74.5 -35.5t173.5 -12.5q117 0 172.5 6.5t89.5 24.5q62 34 145 199q10 8 28 3.5t24 -17.5q-10 -53 -41.5 -148t-51.5 -137q-276 6 -548 6h-185q-97 0 -278 -6q-9 5 -11 23.5t7 27.5l67 6q37 3 58.5 10.5t36.5 21t21 45.5t8.5 70t2.5 109zM401 1452q-100 0 -100 104
q-5 45 24.5 80t75.5 35q45 0 75 -34t30 -76q0 -45 -29.5 -77t-75.5 -32zM807 1452q-47 0 -76.5 26.5t-30.5 77.5q0 46 30.5 80.5t76.5 34.5q45 0 71.5 -33.5t26.5 -76.5q0 -46 -26 -77.5t-72 -31.5z" />
    <glyph glyph-name="Igrave" unicode="&#xcc;" horiz-adv-x="692" 
d="M262 311v729q0 63 -0.5 95t-5 66.5t-11.5 48.5t-22 28t-34.5 18t-51.5 7l-51 4q-9 6 -7 26t11 25q153 -6 258 -6q101 0 254 6q9 -5 11 -25t-7 -26l-51 -4q-32 -3 -51.5 -7t-34.5 -18t-22 -28t-11.5 -48.5t-5 -66.5t-0.5 -95v-729q0 -47 0.5 -73t2.5 -56.5t4.5 -45
t9.5 -31.5t15 -23.5t22.5 -14t30.5 -10.5t40 -6l51 -6q9 -6 7 -26t-11 -25q-153 6 -254 6q-105 0 -258 -6q-9 5 -11 23.5t7 27.5l51 6q24 3 40 6t30.5 10.5t22.5 14t15 23.5t9.5 31.5t4.5 45t2.5 56.5t0.5 73zM422 1446l-342 147q-39 15 -53 33q-12 33 14 84q11 23 28 35
t29 12q15 0 56 -26l288 -236q4 -17 -2.5 -31.5t-17.5 -17.5z" />
    <glyph glyph-name="Iacute" unicode="&#xcd;" horiz-adv-x="692" 
d="M262 311v729q0 63 -0.5 95t-5 66.5t-11.5 48.5t-22 28t-34.5 18t-51.5 7l-51 4q-9 6 -7 26t11 25q153 -6 258 -6q101 0 254 6q9 -5 11 -25t-7 -26l-51 -4q-32 -3 -51.5 -7t-34.5 -18t-22 -28t-11.5 -48.5t-5 -66.5t-0.5 -95v-729q0 -47 0.5 -73t2.5 -56.5t4.5 -45
t9.5 -31.5t15 -23.5t22.5 -14t30.5 -10.5t40 -6l51 -6q9 -6 7 -26t-11 -25q-153 6 -254 6q-105 0 -258 -6q-9 5 -11 23.5t7 27.5l51 6q24 3 40 6t30.5 10.5t22.5 14t15 23.5t9.5 31.5t4.5 45t2.5 56.5t0.5 73zM614 1593l-342 -147q-11 3 -17.5 17.5t-2.5 31.5l289 234
q39 28 55 28q12 0 29 -12t28 -35q27 -52 15 -84q-14 -18 -54 -33z" />
    <glyph glyph-name="Icircumflex" unicode="&#xce;" horiz-adv-x="692" 
d="M262 311v729q0 63 -0.5 95t-5 66.5t-11.5 48.5t-22 28t-34.5 18t-51.5 7l-51 4q-9 6 -7 26t11 25q153 -6 258 -6q101 0 254 6q9 -5 11 -25t-7 -26l-51 -4q-32 -3 -51.5 -7t-34.5 -18t-22 -28t-11.5 -48.5t-5 -66.5t-0.5 -95v-729q0 -47 0.5 -73t2.5 -56.5t4.5 -45
t9.5 -31.5t15 -23.5t22.5 -14t30.5 -10.5t40 -6l51 -6q9 -6 7 -26t-11 -25q-153 6 -254 6q-105 0 -258 -6q-9 5 -11 23.5t7 27.5l51 6q24 3 40 6t30.5 10.5t22.5 14t15 23.5t9.5 31.5t4.5 45t2.5 56.5t0.5 73zM66 1489l249 235q41 41 86 0l250 -235q0 -14 -7.5 -27
t-16.5 -14l-238 121q-22 11 -32.5 11t-32.5 -11l-232 -121q-12 0 -19 13t-7 28z" />
    <glyph glyph-name="Idieresis" unicode="&#xcf;" horiz-adv-x="692" 
d="M262 311v729q0 63 -0.5 95t-5 66.5t-11.5 48.5t-22 28t-34.5 18t-51.5 7l-51 4q-9 6 -7 26t11 25q153 -6 258 -6q101 0 254 6q9 -5 11 -25t-7 -26l-51 -4q-32 -3 -51.5 -7t-34.5 -18t-22 -28t-11.5 -48.5t-5 -66.5t-0.5 -95v-729q0 -47 0.5 -73t2.5 -56.5t4.5 -45
t9.5 -31.5t15 -23.5t22.5 -14t30.5 -10.5t40 -6l51 -6q9 -6 7 -26t-11 -25q-153 6 -254 6q-105 0 -258 -6q-9 5 -11 23.5t7 27.5l51 6q24 3 40 6t30.5 10.5t22.5 14t15 23.5t9.5 31.5t4.5 45t2.5 56.5t0.5 73zM172 1444q-100 0 -100 104q-5 45 24.5 80t75.5 35
q45 0 74.5 -34.5t29.5 -76.5q0 -45 -29 -76.5t-75 -31.5zM553 1444q-47 0 -76.5 26.5t-30.5 77.5q0 46 30.5 80.5t76.5 34.5q45 0 71.5 -34t26.5 -77q0 -46 -26 -77t-72 -31z" />
    <glyph glyph-name="Eth" unicode="&#xd0;" horiz-adv-x="1609" 
d="M262 307v361h-184q-14 10 -14 35t14 36h184v295q0 149 -17.5 199t-88.5 59l-35 4q-13 6 -13 25t15 25q348 12 522 12q141 0 244.5 -12.5t197.5 -47.5q202 -73 309 -234t107 -368q0 -200 -92.5 -359.5t-265.5 -254.5q-181 -98 -459 -98q-73 0 -189 8t-145 8
q-112 0 -256 -6q-9 5 -11 23.5t7 27.5l47 6q32 4 50.5 8.5t34 18t22 26t11 46t5 64.5t0.5 93zM430 1110v-371h377q13 -10 13 -35.5t-13 -35.5h-377v-314q0 -89 8 -138.5t33 -84.5q33 -46 92.5 -65t159.5 -19q146 0 257 46t180 132t103.5 202t34.5 261q0 75 -14.5 149
t-58.5 159t-112.5 149t-187 106.5t-272.5 42.5q-165 0 -202 -28q-21 -16 -21 -156z" />
    <glyph glyph-name="Ntilde" unicode="&#xd1;" horiz-adv-x="1603" 
d="M1364 838v-490q0 -305 6 -358q-8 -23 -39 -23q-39 55 -262 309l-475 541q-14 16 -113.5 133.5t-124.5 143.5h-4q-10 -31 -10 -133v-447q0 -360 37 -424q17 -32 104 -39l64 -6q9 -12 8 -27.5t-12 -23.5q-138 6 -240 6q-105 0 -213 -6q-10 7 -11.5 24.5t7.5 26.5l55 6
q76 10 90 41q27 69 27 422v592q0 51 -8 83t-37 64q-39 39 -127 50l-35 4q-9 9 -8.5 27t12.5 24q86 -6 232 -6q53 0 94 6q42 -107 350 -451l199 -223q260 -292 338 -371h4q8 10 8 86v439q0 360 -41 424q-19 28 -127 41l-35 4q-11 9 -9.5 28t13.5 23q141 -6 242 -6
q106 0 211 6q12 -7 12.5 -24.5t-8.5 -26.5l-29 -4q-100 -15 -114 -43q-6 -12 -10.5 -30t-7.5 -42.5t-5.5 -48t-4 -55.5t-2 -55t-1 -57t-0.5 -50.5v-47v-36.5zM766 1634h129q70 0 100.5 14.5t69.5 67.5q9 7 21 4t16 -14q-10 -40 -36 -88t-48 -70q-22 -20 -45.5 -26t-63.5 -6
h-118q-70 0 -107.5 -24t-71.5 -83q-9 -8 -23 -6t-20 14q8 35 33.5 92t50.5 78q24 27 49.5 37t63.5 10z" />
    <glyph glyph-name="Ograve" unicode="&#xd2;" horiz-adv-x="1628" 
d="M823 -33q-166 0 -305 56.5t-231 152.5t-142.5 221.5t-50.5 264.5q0 152 55 285.5t151 229.5t231.5 151.5t291.5 55.5q138 0 255 -38.5t200 -105t141.5 -156t86.5 -191.5t28 -211q0 -152 -56 -286t-151 -227.5t-226.5 -147.5t-277.5 -54zM850 31q95 0 179 36t152 105.5
t108 184.5t40 261q0 105 -18.5 203t-60 190t-102.5 160t-154 109t-206 41q-67 0 -132.5 -18t-131 -62.5t-115 -110t-80 -170t-30.5 -233.5q0 -95 18 -189t60.5 -186.5t104 -163t157 -114t211.5 -43.5zM926 1446l-342 147q-43 18 -52 33q-19 37 13 84q33 47 57 47
q14 0 55 -26l289 -236q4 -17 -2.5 -31.5t-17.5 -17.5z" />
    <glyph glyph-name="Oacute" unicode="&#xd3;" horiz-adv-x="1628" 
d="M823 -33q-166 0 -305 56.5t-231 152.5t-142.5 221.5t-50.5 264.5q0 152 55 285.5t151 229.5t231.5 151.5t291.5 55.5q138 0 255 -38.5t200 -105t141.5 -156t86.5 -191.5t28 -211q0 -152 -56 -286t-151 -227.5t-226.5 -147.5t-277.5 -54zM850 31q95 0 179 36t152 105.5
t108 184.5t40 261q0 105 -18.5 203t-60 190t-102.5 160t-154 109t-206 41q-67 0 -132.5 -18t-131 -62.5t-115 -110t-80 -170t-30.5 -233.5q0 -95 18 -189t60.5 -186.5t104 -163t157 -114t211.5 -43.5zM1083 1604l-342 -148q-11 3 -17.5 17.5t-2.5 31.5l289 236q41 26 55 26
q12 0 29 -12t28 -35q27 -52 15 -84q-13 -16 -54 -32z" />
    <glyph glyph-name="Ocircumflex" unicode="&#xd4;" horiz-adv-x="1628" 
d="M823 -33q-166 0 -305 56.5t-231 152.5t-142.5 221.5t-50.5 264.5q0 152 55 285.5t151 229.5t231.5 151.5t291.5 55.5q138 0 255 -38.5t200 -105t141.5 -156t86.5 -191.5t28 -211q0 -152 -56 -286t-151 -227.5t-226.5 -147.5t-277.5 -54zM850 31q95 0 179 36t152 105.5
t108 184.5t40 261q0 105 -18.5 203t-60 190t-102.5 160t-154 109t-206 41q-67 0 -132.5 -18t-131 -62.5t-115 -110t-80 -170t-30.5 -233.5q0 -95 18 -189t60.5 -186.5t104 -163t157 -114t211.5 -43.5zM535 1489l249 227q44 39 86 0l250 -227q0 -14 -7.5 -27t-16.5 -14
l-238 119q-22 11 -32.5 11t-32.5 -11l-232 -119q-12 0 -19 13t-7 28z" />
    <glyph glyph-name="Otilde" unicode="&#xd5;" horiz-adv-x="1628" 
d="M823 -33q-166 0 -305 56.5t-231 152.5t-142.5 221.5t-50.5 264.5q0 152 55 285.5t151 229.5t231.5 151.5t291.5 55.5q138 0 255 -38.5t200 -105t141.5 -156t86.5 -191.5t28 -211q0 -152 -56 -286t-151 -227.5t-226.5 -147.5t-277.5 -54zM850 31q95 0 179 36t152 105.5
t108 184.5t40 261q0 105 -18.5 203t-60 190t-102.5 160t-154 109t-206 41q-67 0 -132.5 -18t-131 -62.5t-115 -110t-80 -170t-30.5 -233.5q0 -95 18 -189t60.5 -186.5t104 -163t157 -114t211.5 -43.5zM754 1651h129q70 0 100.5 14.5t69.5 69.5q9 8 21 5.5t16 -14.5
q-10 -43 -35.5 -92t-48.5 -73q-22 -22 -46 -28.5t-63 -6.5h-119q-71 0 -107.5 -25t-70.5 -88q-9 -6 -23 -4t-20 12q8 37 33.5 97t50.5 81q24 29 50 40.5t63 11.5z" />
    <glyph glyph-name="Odieresis" unicode="&#xd6;" horiz-adv-x="1628" 
d="M823 -33q-166 0 -305 56.5t-231 152.5t-142.5 221.5t-50.5 264.5q0 152 55 285.5t151 229.5t231.5 151.5t291.5 55.5q138 0 255 -38.5t200 -105t141.5 -156t86.5 -191.5t28 -211q0 -152 -56 -286t-151 -227.5t-226.5 -147.5t-277.5 -54zM850 31q95 0 179 36t152 105.5
t108 184.5t40 261q0 105 -18.5 203t-60 190t-102.5 160t-154 109t-206 41q-67 0 -132.5 -18t-131 -62.5t-115 -110t-80 -170t-30.5 -233.5q0 -95 18 -189t60.5 -186.5t104 -163t157 -114t211.5 -43.5zM625 1464q-48 0 -74.5 26.5t-26.5 78.5q-5 45 25 79.5t76 34.5
q45 0 74.5 -34t29.5 -76q0 -46 -29 -77.5t-75 -31.5zM1016 1464q-47 0 -76.5 27t-30.5 78q0 46 30.5 80t76.5 34q45 0 71.5 -33.5t26.5 -76.5q0 -46 -26 -77.5t-72 -31.5z" />
    <glyph glyph-name="multiply" unicode="&#xd7;" horiz-adv-x="1024" 
d="M893 715l-303 -307l303 -306l-76 -79l-305 307l-303 -307l-76 79l301 306l-301 301l76 79l303 -303l305 308z" />
    <glyph glyph-name="Oslash" unicode="&#xd8;" horiz-adv-x="1628" 
d="M1413 1368l-113 -143q115 -98 174.5 -241t59.5 -308q0 -200 -95 -363t-257.5 -254.5t-358.5 -91.5q-241 0 -424 121l-137 -170q-22 0 -40 15t-19 36l133 166q-116 95 -179 233t-63 294q0 152 55 285.5t151 229.5t231.5 151.5t291.5 55.5q239 0 412 -112l117 147
q23 -2 42 -17t19 -34zM1200 1100l-719 -907q142 -162 369 -162q95 0 179 36t152 105.5t108 184.5t40 261q0 291 -129 482zM432 256l719 909q-140 156 -363 156q-67 0 -132.5 -18t-131 -62.5t-115 -110t-80 -170t-30.5 -233.5q0 -125 33 -249t100 -222z" />
    <glyph glyph-name="Ugrave" unicode="&#xd9;" horiz-adv-x="1527" 
d="M1239 602v236q0 356 -39 424q-21 37 -102 43l-51 4q-9 11 -7 27t11 22q117 -6 233 -6q104 0 215 6q11 -7 11.5 -23.5t-7.5 -25.5l-49 -4q-38 -3 -65.5 -16.5t-36.5 -33.5q-29 -68 -29 -417v-232q0 -336 -143 -489q-65 -71 -170.5 -110.5t-221.5 -39.5q-251 0 -382 113
q-82 68 -121 184.5t-39 298.5v484q0 47 -0.5 72.5t-2 56t-4.5 45t-9.5 31.5t-15 23.5t-22 14t-30 10.5t-39.5 5l-51 4q-9 6 -7 25t11 24q153 -6 254 -6q102 0 252 6q9 -5 11 -24t-7 -25l-49 -4q-23 -2 -39.5 -5t-30 -10.5t-22 -14t-15 -23.5t-9.5 -31.5t-4.5 -45t-2 -56
t-0.5 -72.5v-443q0 -128 21.5 -225t68.5 -171t128.5 -112.5t196.5 -38.5q108 0 188.5 41t128 115.5t70.5 171.5t23 217zM891 1446l-342 147q-42 17 -51 33q-15 31 12 84q11 23 28 35t29 12q15 0 56 -26l288 -236q4 -17 -2.5 -31.5t-17.5 -17.5z" />
    <glyph glyph-name="Uacute" unicode="&#xda;" horiz-adv-x="1527" 
d="M1239 602v236q0 356 -39 424q-21 37 -102 43l-51 4q-9 11 -7 27t11 22q117 -6 233 -6q104 0 215 6q11 -7 11.5 -23.5t-7.5 -25.5l-49 -4q-38 -3 -65.5 -16.5t-36.5 -33.5q-29 -68 -29 -417v-232q0 -336 -143 -489q-65 -71 -170.5 -110.5t-221.5 -39.5q-251 0 -382 113
q-82 68 -121 184.5t-39 298.5v484q0 47 -0.5 72.5t-2 56t-4.5 45t-9.5 31.5t-15 23.5t-22 14t-30 10.5t-39.5 5l-51 4q-9 6 -7 25t11 24q153 -6 254 -6q102 0 252 6q9 -5 11 -24t-7 -25l-49 -4q-23 -2 -39.5 -5t-30 -10.5t-22 -14t-15 -23.5t-9.5 -31.5t-4.5 -45t-2 -56
t-0.5 -72.5v-443q0 -128 21.5 -225t68.5 -171t128.5 -112.5t196.5 -38.5q108 0 188.5 41t128 115.5t70.5 171.5t23 217zM1065 1593l-342 -147q-11 3 -18 18t-3 31l289 236q41 26 56 26q12 0 29 -12t28 -35q26 -51 14 -84q-14 -18 -53 -33z" />
    <glyph glyph-name="Ucircumflex" unicode="&#xdb;" horiz-adv-x="1527" 
d="M1239 602v236q0 356 -39 424q-21 37 -102 43l-51 4q-9 11 -7 27t11 22q117 -6 233 -6q104 0 215 6q11 -7 11.5 -23.5t-7.5 -25.5l-49 -4q-38 -3 -65.5 -16.5t-36.5 -33.5q-29 -68 -29 -417v-232q0 -336 -143 -489q-65 -71 -170.5 -110.5t-221.5 -39.5q-251 0 -382 113
q-82 68 -121 184.5t-39 298.5v484q0 47 -0.5 72.5t-2 56t-4.5 45t-9.5 31.5t-15 23.5t-22 14t-30 10.5t-39.5 5l-51 4q-9 6 -7 25t11 24q153 -6 254 -6q102 0 252 6q9 -5 11 -24t-7 -25l-49 -4q-23 -2 -39.5 -5t-30 -10.5t-22 -14t-15 -23.5t-9.5 -31.5t-4.5 -45t-2 -56
t-0.5 -72.5v-443q0 -128 21.5 -225t68.5 -171t128.5 -112.5t196.5 -38.5q108 0 188.5 41t128 115.5t70.5 171.5t23 217zM535 1489l249 227q44 39 86 0l250 -227q0 -14 -7.5 -27t-16.5 -14l-238 119q-22 11 -32.5 11t-32.5 -11l-232 -119q-12 0 -19 13t-7 28z" />
    <glyph glyph-name="Udieresis" unicode="&#xdc;" horiz-adv-x="1527" 
d="M1239 602v236q0 356 -39 424q-21 37 -102 43l-51 4q-9 11 -7 27t11 22q117 -6 233 -6q104 0 215 6q11 -7 11.5 -23.5t-7.5 -25.5l-49 -4q-38 -3 -65.5 -16.5t-36.5 -33.5q-29 -68 -29 -417v-232q0 -336 -143 -489q-65 -71 -170.5 -110.5t-221.5 -39.5q-251 0 -382 113
q-82 68 -121 184.5t-39 298.5v484q0 47 -0.5 72.5t-2 56t-4.5 45t-9.5 31.5t-15 23.5t-22 14t-30 10.5t-39.5 5l-51 4q-9 6 -7 25t11 24q153 -6 254 -6q102 0 252 6q9 -5 11 -24t-7 -25l-49 -4q-23 -2 -39.5 -5t-30 -10.5t-22 -14t-15 -23.5t-9.5 -31.5t-4.5 -45t-2 -56
t-0.5 -72.5v-443q0 -128 21.5 -225t68.5 -171t128.5 -112.5t196.5 -38.5q108 0 188.5 41t128 115.5t70.5 171.5t23 217zM614 1444q-100 0 -100 104q-5 45 24.5 80t75.5 35q45 0 75 -34.5t30 -76.5q0 -45 -29.5 -76.5t-75.5 -31.5zM1016 1444q-47 0 -76.5 26.5t-30.5 77.5
q0 46 30.5 80.5t76.5 34.5q45 0 71.5 -34t26.5 -77q0 -46 -26 -77t-72 -31z" />
    <glyph glyph-name="Yacute" unicode="&#xdd;" horiz-adv-x="1175" 
d="M688 418v-107q0 -71 2.5 -111t8.5 -72t21 -46t35.5 -21t55.5 -10l78 -6q9 -9 7 -27.5t-11 -23.5q-191 6 -279 6q-104 0 -268 -6q-9 5 -11 23.5t7 27.5l63 6q24 2 39.5 5t29.5 10.5t22 14t15 23.5t9.5 31.5t4.5 45t2.5 56.5t0.5 74v105q0 85 -10.5 126.5t-54.5 127.5
l-242 471q-49 94 -79.5 120.5t-82.5 34.5l-57 11q-9 10 -7.5 27.5t11.5 23.5q99 -6 238 -6q142 0 219 6q13 -4 14.5 -23t-8.5 -28l-27 -4q-51 -7 -68.5 -15.5t-17.5 -21.5t25 -72t39 -86q19 -38 70 -142.5t88 -177t73 -135.5q138 239 193 346q133 247 133 271q0 9 -25 19
t-61 14l-37 4q-11 10 -9.5 27.5t13.5 23.5q111 -6 197 -6q85 0 190 6q12 -7 13.5 -24.5t-9.5 -26.5l-57 -11q-17 -3 -33 -9.5t-32.5 -19t-29 -23t-29 -33t-27 -36.5t-29 -45t-28 -46.5t-31.5 -54t-32 -56.5l-129 -223q-68 -118 -82 -166t-14 -166zM887 1593l-342 -147
q-11 3 -18 18t-3 31l289 236q41 26 55 26q13 0 30 -12t28 -35q26 -51 14 -84q-14 -18 -53 -33z" />
    <glyph glyph-name="Thorn" unicode="&#xde;" horiz-adv-x="1148" 
d="M262 307v737q0 60 -1.5 96.5t-7 67.5t-13 46t-23.5 26.5t-34.5 15.5t-49.5 7l-45 4q-9 6 -7 26t11 25q153 -6 258 -6q107 0 248 6q9 -7 9.5 -25.5t-5.5 -25.5l-33 -4q-34 -4 -55.5 -10t-38 -18.5t-24.5 -26.5t-13.5 -43t-6.5 -58t-1 -80h166q100 0 182 -20.5t146.5 -63.5
t100.5 -115t36 -168q0 -111 -55 -187t-129 -114q-68 -34 -151.5 -48t-147.5 -11q-9 4 -10 20.5t7 20.5q299 44 299 311q0 146 -83.5 229t-243.5 83q-80 0 -98.5 -12t-18.5 -60v-625q0 -63 0.5 -94t5 -65t11 -47t21.5 -26t34 -17t51 -7l76 -6q9 -6 7 -26t-11 -25
q-184 6 -275 6q-111 0 -252 -6q-9 5 -11 23.5t7 27.5l45 6q32 4 50.5 8.5t34 18t22 26t11 46t5 64.5t0.5 93z" />
    <glyph glyph-name="germandbls" unicode="&#xdf;" horiz-adv-x="1071" 
d="M346 842v-613q0 -113 9 -143.5t48 -34.5l50 -6q10 -8 8.5 -27t-12.5 -24q-102 6 -179 6q-104 0 -196 -6q-11 5 -12.5 24t8.5 27l47 6q55 7 66.5 35.5t11.5 142.5v433q0 42 -5.5 50.5t-35.5 8.5h-72q-9 6 -10.5 18t4.5 21l88 43q31 15 31 41q0 201 71 350q35 73 84.5 130
t132.5 98.5t183 41.5q80 0 141.5 -24t96.5 -64t52 -86.5t17 -97.5q0 -29 -6.5 -54.5t-14.5 -43t-25.5 -39t-28.5 -32.5t-35 -33t-34 -32l-49 -47q-94 -88 -94 -161q0 -39 21 -76.5t50 -65.5t83 -71q39 -30 64.5 -54.5t54 -60.5t43 -80t14.5 -94q0 -123 -92.5 -200
t-212.5 -77q-118 0 -160 39q-21 21 -25.5 54.5t13.5 62.5q6 9 20 11t23 -7q2 -2 14 -13t19 -17.5t20.5 -18t24.5 -19t23.5 -15t25 -11.5t22.5 -4q58 0 102 43t44 123q0 117 -158 235q-166 124 -166 260q0 58 34 106.5t111 123.5q131 121 131 239q0 96 -60.5 163t-160.5 67
q-124 0 -193 -152.5t-69 -398.5z" />
    <glyph glyph-name="agrave" unicode="&#xe0;" horiz-adv-x="827" 
d="M242 336l243 88q22 7 28.5 20t6.5 39l2 95q1 32 -5 60.5t-21 56.5t-46.5 44.5t-76.5 16.5q-48 0 -88 -24t-43 -68q-3 -57 -21 -70q-22 -18 -56.5 -28.5t-60.5 -10.5q-28 0 -28 29q0 51 63.5 111t154 100.5t163.5 40.5q109 0 163.5 -62t49.5 -178l-13 -356
q-8 -179 95 -179q25 0 51 13q23 14 26 14q6 0 10.5 -8t4.5 -19q0 -7 -21 -27.5t-63.5 -41.5t-87.5 -21q-83 0 -133 64q-19 28 -33 28q-4 0 -9.5 -1.5t-13.5 -6t-15 -8.5t-20 -11.5t-22 -12.5q-34 -19 -48 -26t-43.5 -16.5t-55.5 -9.5q-91 0 -144 47q-63 57 -63 144
q0 61 37 100t133 74zM229 186q0 -23 9.5 -48.5t40.5 -50t79 -24.5q29 0 68.5 17.5t56.5 34.5q12 12 18 28.5t7 27.5t2 40l4 121q0 16 -5 21t-15 5q-22 0 -84 -20q-99 -34 -140 -65t-41 -87zM317 1309l168 -348q0 -12 -16 -19.5t-29 -5.5l-250 272q-36 39 -36 64q0 23 41 53
q38 33 71 33q29 0 51 -49z" />
    <glyph glyph-name="aacute" unicode="&#xe1;" horiz-adv-x="827" 
d="M242 336l243 88q22 7 28.5 20t6.5 39l2 95q1 32 -5 60.5t-21 56.5t-46.5 44.5t-76.5 16.5q-48 0 -88 -24t-43 -68q-3 -57 -21 -70q-22 -18 -56.5 -28.5t-60.5 -10.5q-28 0 -28 29q0 51 63.5 111t154 100.5t163.5 40.5q109 0 163.5 -62t49.5 -178l-13 -356
q-8 -179 95 -179q25 0 51 13q23 14 26 14q6 0 10.5 -8t4.5 -19q0 -7 -21 -27.5t-63.5 -41.5t-87.5 -21q-83 0 -133 64q-19 28 -33 28q-4 0 -9.5 -1.5t-13.5 -6t-15 -8.5t-20 -11.5t-22 -12.5q-34 -19 -48 -26t-43.5 -16.5t-55.5 -9.5q-91 0 -144 47q-63 57 -63 144
q0 61 37 100t133 74zM229 186q0 -23 9.5 -48.5t40.5 -50t79 -24.5q29 0 68.5 17.5t56.5 34.5q12 12 18 28.5t7 27.5t2 40l4 121q0 16 -5 21t-15 5q-22 0 -84 -20q-99 -34 -140 -65t-41 -87zM649 1210l-256 -266q-11 -2 -22.5 5.5t-12.5 17.5l177 333q26 50 49 50
q24 0 63 -31q35 -28 35 -53q0 -23 -33 -56z" />
    <glyph glyph-name="acircumflex" unicode="&#xe2;" horiz-adv-x="827" 
d="M242 336l243 88q22 7 28.5 20t6.5 39l2 95q1 32 -5 60.5t-21 56.5t-46.5 44.5t-76.5 16.5q-48 0 -88 -24t-43 -68q-3 -57 -21 -70q-22 -18 -56.5 -28.5t-60.5 -10.5q-28 0 -28 29q0 51 63.5 111t154 100.5t163.5 40.5q109 0 163.5 -62t49.5 -178l-13 -356
q-8 -179 95 -179q25 0 51 13q23 14 26 14q6 0 10.5 -8t4.5 -19q0 -7 -21 -27.5t-63.5 -41.5t-87.5 -21q-83 0 -133 64q-19 28 -33 28q-4 0 -9.5 -1.5t-13.5 -6t-15 -8.5t-20 -11.5t-22 -12.5q-34 -19 -48 -26t-43.5 -16.5t-55.5 -9.5q-91 0 -144 47q-63 57 -63 144
q0 61 37 100t133 74zM229 186q0 -23 9.5 -48.5t40.5 -50t79 -24.5q29 0 68.5 17.5t56.5 34.5q12 12 18 28.5t7 27.5t2 40l4 121q0 16 -5 21t-15 5q-22 0 -84 -20q-99 -34 -140 -65t-41 -87zM578 932l-150 190q-19 23 -27.5 23t-27.5 -23l-152 -190q-9 -3 -24.5 3t-16.5 15
l185 353q35 63 71 0l187 -353q-1 -9 -19 -15t-26 -3z" />
    <glyph glyph-name="atilde" unicode="&#xe3;" horiz-adv-x="827" 
d="M242 336l243 88q22 7 28.5 20t6.5 39l2 95q1 32 -5 60.5t-21 56.5t-46.5 44.5t-76.5 16.5q-48 0 -88 -24t-43 -68q-3 -57 -21 -70q-22 -18 -56.5 -28.5t-60.5 -10.5q-28 0 -28 29q0 51 63.5 111t154 100.5t163.5 40.5q109 0 163.5 -62t49.5 -178l-13 -356
q-8 -179 95 -179q25 0 51 13q23 14 26 14q6 0 10.5 -8t4.5 -19q0 -7 -21 -27.5t-63.5 -41.5t-87.5 -21q-83 0 -133 64q-19 28 -33 28q-4 0 -9.5 -1.5t-13.5 -6t-15 -8.5t-20 -11.5t-22 -12.5q-34 -19 -48 -26t-43.5 -16.5t-55.5 -9.5q-91 0 -144 47q-63 57 -63 144
q0 61 37 100t133 74zM229 186q0 -23 9.5 -48.5t40.5 -50t79 -24.5q29 0 68.5 17.5t56.5 34.5q12 12 18 28.5t7 27.5t2 40l4 121q0 16 -5 21t-15 5q-22 0 -84 -20q-99 -34 -140 -65t-41 -87zM362 1161h109q64 0 92 13.5t62 64.5q25 12 34 -12q-9 -37 -31.5 -80t-43.5 -66
q-22 -19 -43.5 -25.5t-57.5 -6.5h-106q-65 0 -100 -24t-66 -81q-7 -6 -19 -3.5t-16 11.5q6 30 30 85.5t46 76.5q42 47 110 47z" />
    <glyph glyph-name="adieresis" unicode="&#xe4;" horiz-adv-x="827" 
d="M242 336l243 88q22 7 28.5 20t6.5 39l2 95q1 32 -5 60.5t-21 56.5t-46.5 44.5t-76.5 16.5q-48 0 -88 -24t-43 -68q-3 -57 -21 -70q-22 -18 -56.5 -28.5t-60.5 -10.5q-28 0 -28 29q0 51 63.5 111t154 100.5t163.5 40.5q109 0 163.5 -62t49.5 -178l-13 -356
q-8 -179 95 -179q25 0 51 13q23 14 26 14q6 0 10.5 -8t4.5 -19q0 -7 -21 -27.5t-63.5 -41.5t-87.5 -21q-83 0 -133 64q-19 28 -33 28q-4 0 -9.5 -1.5t-13.5 -6t-15 -8.5t-20 -11.5t-22 -12.5q-34 -19 -48 -26t-43.5 -16.5t-55.5 -9.5q-91 0 -144 47q-63 57 -63 144
q0 61 37 100t133 74zM229 186q0 -23 9.5 -48.5t40.5 -50t79 -24.5q29 0 68.5 17.5t56.5 34.5q12 12 18 28.5t7 27.5t2 40l4 121q0 16 -5 21t-15 5q-22 0 -84 -20q-99 -34 -140 -65t-41 -87zM221 1028q-43 0 -71 26.5t-29 73.5q-2 45 27 76t73 31q43 0 73 -30t30 -68
q0 -47 -29.5 -78t-73.5 -31zM580 1028q-44 0 -74 28t-31 74q0 43 30.5 74t74.5 31q42 0 70 -29.5t28 -66.5q0 -48 -27 -79.5t-71 -31.5z" />
    <glyph glyph-name="aring" unicode="&#xe5;" horiz-adv-x="827" 
d="M242 336l243 88q22 7 28.5 20t6.5 39l2 95q1 32 -5 60.5t-21 56.5t-46.5 44.5t-76.5 16.5q-48 0 -88 -24t-43 -68q-3 -57 -21 -70q-22 -18 -56.5 -28.5t-60.5 -10.5q-28 0 -28 29q0 51 63.5 111t154 100.5t163.5 40.5q109 0 163.5 -62t49.5 -178l-13 -356
q-8 -179 95 -179q25 0 51 13q23 14 26 14q6 0 10.5 -8t4.5 -19q0 -7 -21 -27.5t-63.5 -41.5t-87.5 -21q-83 0 -133 64q-19 28 -33 28q-4 0 -9.5 -1.5t-13.5 -6t-15 -8.5t-20 -11.5t-22 -12.5q-34 -19 -48 -26t-43.5 -16.5t-55.5 -9.5q-91 0 -144 47q-63 57 -63 144
q0 61 37 100t133 74zM229 186q0 -23 9.5 -48.5t40.5 -50t79 -24.5q29 0 68.5 17.5t56.5 34.5q12 12 18 28.5t7 27.5t2 40l4 121q0 16 -5 21t-15 5q-22 0 -84 -20q-99 -34 -140 -65t-41 -87zM414 1307q74 0 124 -49.5t50 -116.5q0 -68 -49.5 -117t-124.5 -49t-124.5 49
t-49.5 117q0 67 50 116.5t124 49.5zM322 1141q0 -47 26.5 -78t65.5 -31q40 0 66 31t26 78q0 46 -26 76t-66 30q-39 0 -65.5 -30.5t-26.5 -75.5z" />
    <glyph glyph-name="ae" unicode="&#xe6;" horiz-adv-x="1198" 
d="M498 225v109q0 24 -10 28.5t-35 -4.5l-91 -30q-135 -48 -135 -152q0 -50 31.5 -81.5t79.5 -31.5q67 0 125 58q35 38 35 104zM498 473v84q0 38 -1.5 61.5t-9 54.5t-21.5 49t-41.5 31t-66.5 13q-57 0 -86.5 -30t-33.5 -68q-4 -50 -23 -64t-54 -26.5t-61 -12.5
q-10 0 -17 8.5t-7 20.5q0 33 31 74t77 75q126 93 254 93q134 0 178 -115q119 115 281 115q105 0 185.5 -60t80.5 -149q0 -42 -37 -54l-452 -145q-24 -8 -30.5 -16t-6.5 -31v-49q0 -121 69 -186.5t185 -65.5q69 0 121.5 26.5t115.5 102.5q12 6 24.5 -4t10.5 -21
q-62 -113 -146.5 -163t-201.5 -50q-95 0 -164 37.5t-110 95.5l-84 -57q-60 -41 -107 -58.5t-102 -17.5q-73 0 -124.5 51.5t-51.5 129.5q0 67 45.5 114.5t115.5 73.5l218 82q32 11 39.5 19t7.5 32zM674 494l231 75q53 16 71.5 30.5t18.5 45.5q0 55 -44 92t-105 37
q-91 0 -150 -77.5t-59 -176.5q0 -24 6 -28.5t31 2.5z" />
    <glyph glyph-name="ccedilla" unicode="&#xe7;" horiz-adv-x="821" 
d="M377 -199l106 172q-2 -2 -10 -2q-172 0 -280 105q-119 116 -119 303q0 85 30.5 165t89 146t156 106t219.5 40q106 0 183 -35q30 -26 30 -82q0 -29 -13.5 -52.5t-31.5 -23.5q-17 0 -28 14q-38 46 -92 77.5t-113 31.5q-115 0 -199 -88t-84 -242q0 -62 21.5 -122.5t61 -112
t104 -83.5t143.5 -32q83 0 135 32t92 91q12 3 23.5 -6t13.5 -23q-39 -85 -109.5 -134t-152.5 -62l-59 -97q-14 -25 16 -43q84 -57 84 -129q0 -67 -57.5 -113t-130.5 -46q-50 0 -77.5 17.5t-27.5 45.5q0 17 12.5 32t32.5 15q19 0 51 -26.5t43 -26.5q20 0 34.5 13.5t14.5 43.5
q0 35 -32 68.5t-80 52.5v10z" />
    <glyph glyph-name="egrave" unicode="&#xe8;" horiz-adv-x="811" 
d="M645 524h-379q-39 0 -47 -8t-8 -47q0 -163 91 -273t249 -110q55 0 99 21.5t89 78.5q15 4 25 -3t12 -21q-47 -96 -138.5 -143.5t-182.5 -47.5q-96 0 -173.5 37t-123.5 98q-86 113 -86 267q0 94 30 178.5t83 147.5t130.5 100t167.5 37q127 0 209 -73.5t82 -170.5
q0 -37 -8 -53q-8 -15 -121 -15zM248 586h145q186 0 213 20q12 8 12 39q0 51 -38 90t-119 39q-85 0 -155.5 -61t-72.5 -117q0 -10 15 -10zM387 1300l162 -329q0 -12 -16 -19.5t-27 -5.5l-240 260q-35 38 -35 62q0 20 39 51q45 29 70 29q26 0 47 -48z" />
    <glyph glyph-name="eacute" unicode="&#xe9;" horiz-adv-x="811" 
d="M645 524h-379q-39 0 -47 -8t-8 -47q0 -163 91 -273t249 -110q55 0 99 21.5t89 78.5q15 4 25 -3t12 -21q-47 -96 -138.5 -143.5t-182.5 -47.5q-96 0 -173.5 37t-123.5 98q-86 113 -86 267q0 94 30 178.5t83 147.5t130.5 100t167.5 37q127 0 209 -73.5t82 -170.5
q0 -37 -8 -53q-8 -15 -121 -15zM248 586h145q186 0 213 20q12 8 12 39q0 51 -38 90t-119 39q-85 0 -155.5 -61t-72.5 -117q0 -10 15 -10zM655 1196l-256 -266q-11 -2 -22 5t-12 17l176 334q26 49 49 49q25 0 63 -30q35 -28 35 -54q0 -22 -33 -55z" />
    <glyph glyph-name="ecircumflex" unicode="&#xea;" horiz-adv-x="811" 
d="M645 524h-379q-39 0 -47 -8t-8 -47q0 -163 91 -273t249 -110q55 0 99 21.5t89 78.5q15 4 25 -3t12 -21q-47 -96 -138.5 -143.5t-182.5 -47.5q-96 0 -173.5 37t-123.5 98q-86 113 -86 267q0 94 30 178.5t83 147.5t130.5 100t167.5 37q127 0 209 -73.5t82 -170.5
q0 -37 -8 -53q-8 -15 -121 -15zM248 586h145q186 0 213 20q12 8 12 39q0 51 -38 90t-119 39q-85 0 -155.5 -61t-72.5 -117q0 -10 15 -10zM647 934l-149 188q-19 23 -28 23t-28 -23l-151 -188q-9 -3 -24.5 3t-16.5 15l184 363q36 67 72 0l186 -363q-1 -9 -19 -15t-26 -3z" />
    <glyph glyph-name="edieresis" unicode="&#xeb;" horiz-adv-x="811" 
d="M645 524h-379q-39 0 -47 -8t-8 -47q0 -163 91 -273t249 -110q55 0 99 21.5t89 78.5q15 4 25 -3t12 -21q-47 -96 -138.5 -143.5t-182.5 -47.5q-96 0 -173.5 37t-123.5 98q-86 113 -86 267q0 94 30 178.5t83 147.5t130.5 100t167.5 37q127 0 209 -73.5t82 -170.5
q0 -37 -8 -53q-8 -15 -121 -15zM248 586h145q186 0 213 20q12 8 12 39q0 51 -38 90t-119 39q-85 0 -155.5 -61t-72.5 -117q0 -10 15 -10zM297 1028q-42 0 -68.5 25.5t-27.5 70.5q-2 42 26 71.5t70 29.5q41 0 69.5 -29t28.5 -66q0 -44 -27.5 -73t-70.5 -29zM635 1028
q-42 0 -70.5 26.5t-29.5 71.5q0 40 29 69.5t71 29.5q41 0 67.5 -28t26.5 -64q0 -45 -26 -75t-68 -30z" />
    <glyph glyph-name="igrave" unicode="&#xec;" horiz-adv-x="526" 
d="M201 229v359q0 62 -8 81t-48 46l-18 12q-6 6 -5.5 19.5t7.5 17.5q38 13 108 45.5t103 54.5q17 0 20 -12q-8 -144 -8 -254v-369q0 -113 12 -142t66 -36l43 -6q10 -8 8.5 -27t-12.5 -24q-91 6 -193 6q-106 0 -192 -6q-11 5 -12.5 24t8.5 27l43 6q55 7 66.5 35.5t11.5 142.5
zM176 1300l162 -329q0 -12 -16 -19.5t-27 -5.5l-240 260q-35 38 -35 62q0 20 39 51q45 29 70 29q26 0 47 -48z" />
    <glyph glyph-name="iacute" unicode="&#xed;" horiz-adv-x="526" 
d="M201 229v359q0 62 -8 81t-48 46l-18 12q-6 6 -5.5 19.5t7.5 17.5q38 13 108 45.5t103 54.5q17 0 20 -12q-8 -144 -8 -254v-369q0 -113 12 -142t66 -36l43 -6q10 -8 8.5 -27t-12.5 -24q-91 6 -193 6q-106 0 -192 -6q-11 5 -12.5 24t8.5 27l43 6q55 7 66.5 35.5t11.5 142.5
zM492 1225l-256 -267q-11 -2 -22.5 5.5t-12.5 17.5l176 334q26 49 49 49q24 0 63 -31q35 -28 35 -53q0 -23 -32 -55z" />
    <glyph glyph-name="icircumflex" unicode="&#xee;" horiz-adv-x="526" 
d="M201 229v359q0 62 -8 81t-48 46l-18 12q-6 6 -5.5 19.5t7.5 17.5q38 13 108 45.5t103 54.5q17 0 20 -12q-8 -144 -8 -254v-369q0 -113 12 -142t66 -36l43 -6q10 -8 8.5 -27t-12.5 -24q-91 6 -193 6q-106 0 -192 -6q-11 5 -12.5 24t8.5 27l43 6q55 7 66.5 35.5t11.5 142.5
zM446 932l-149 188q-19 23 -27.5 23t-27.5 -23l-152 -188q-9 -3 -24.5 3t-16.5 15l184 363q36 67 72 0l187 -363q-1 -8 -19.5 -14.5t-26.5 -3.5z" />
    <glyph glyph-name="idieresis" unicode="&#xef;" horiz-adv-x="526" 
d="M201 229v359q0 62 -8 81t-48 46l-18 12q-6 6 -5.5 19.5t7.5 17.5q38 13 108 45.5t103 54.5q17 0 20 -12q-8 -144 -8 -254v-369q0 -113 12 -142t66 -36l43 -6q10 -8 8.5 -27t-12.5 -24q-91 6 -193 6q-106 0 -192 -6q-11 5 -12.5 24t8.5 27l43 6q55 7 66.5 35.5t11.5 142.5
zM88 1028q-43 0 -71 26.5t-29 73.5q-2 45 27 76t73 31q43 0 72.5 -30t29.5 -68q0 -47 -29 -78t-73 -31zM446 1028q-44 0 -73.5 28t-30.5 74q0 43 30 74t74 31q43 0 71 -29.5t28 -66.5q0 -48 -27.5 -79.5t-71.5 -31.5z" />
    <glyph glyph-name="eth" unicode="&#xf0;" horiz-adv-x="991" 
d="M248 418q0 -69 15.5 -135t45.5 -123t80.5 -92t114.5 -35q68 0 118.5 33.5t78.5 91t41.5 123.5t13.5 141q0 180 -47 266q-46 86 -197 86q-116 0 -190 -99t-74 -257zM893 1294l-213 -110q121 -128 180.5 -305t59.5 -357q0 -258 -115 -404.5t-326 -146.5q-177 0 -292 112.5
t-115 305.5q0 121 61.5 224.5t165 163t221.5 59.5q122 0 199 -43q-16 81 -56 171t-96 160l-268 -139q-19 8 -27 26.5t-2 41.5l254 133q-80 90 -181.5 155.5t-205.5 75.5q-8 10 -6 25t12 22q129 -6 259.5 -67t228.5 -156l229 119q21 -4 31 -24t2 -42z" />
    <glyph glyph-name="ntilde" unicode="&#xf1;" horiz-adv-x="1075" 
d="M201 229v359q0 62 -8 81t-48 46l-18 12q-6 6 -5.5 19.5t7.5 17.5q40 14 108.5 46t96.5 54q16 0 22 -14q-4 -47 -4 -96q0 -9 6.5 -16t16.5 -7q170 105 287 105q120 0 179.5 -71.5t59.5 -182.5v-353q0 -113 12 -142t66 -36l45 -6q10 -8 8.5 -27t-12.5 -24q-92 6 -193 6
q-107 0 -190 -6q-11 5 -12.5 24t8.5 27l39 6q24 4 37.5 10t22.5 14.5t12.5 32t4.5 47t1 74.5v306q0 93 -47 147.5t-146 54.5q-57 0 -104 -20.5t-70 -50.5q-19 -25 -25 -50.5t-6 -72.5v-314q0 -80 4.5 -111t19.5 -46t54 -21l37 -6q10 -8 8.5 -27t-12.5 -24q-83 6 -187 6
q-106 0 -192 -6q-11 5 -12.5 24t8.5 27l43 6q55 7 66.5 35.5t11.5 142.5zM498 1184h110q65 0 93.5 13.5t64.5 66.5q9 5 20 1.5t15 -14.5q-9 -38 -32 -81t-46 -68q-23 -20 -44 -26.5t-56 -6.5h-109q-67 0 -103 -24t-67 -82q-7 -6 -19 -3.5t-16 11.5q6 30 30 87t46 79
q44 47 113 47z" />
    <glyph glyph-name="ograve" unicode="&#xf2;" horiz-adv-x="995" 
d="M508 836q175 0 295.5 -119t120.5 -305q0 -193 -120.5 -317t-311.5 -124q-180 0 -300 116.5t-120 305.5q0 191 126 317t310 126zM748 379q0 55 -8.5 108.5t-29 106t-50 92t-75.5 64t-102 24.5q-104 0 -169.5 -94.5t-65.5 -259.5q0 -98 27.5 -183.5t89 -144.5t147.5 -59
q64 0 112 31t74 83.5t38 110t12 121.5zM408 1294l161 -329q0 -12 -16 -19.5t-27 -5.5l-239 260q-35 38 -35 62q0 20 39 51q43 28 69 28q27 0 48 -47z" />
    <glyph glyph-name="oacute" unicode="&#xf3;" horiz-adv-x="995" 
d="M508 836q175 0 295.5 -119t120.5 -305q0 -193 -120.5 -317t-311.5 -124q-180 0 -300 116.5t-120 305.5q0 191 126 317t310 126zM748 379q0 55 -8.5 108.5t-29 106t-50 92t-75.5 64t-102 24.5q-104 0 -169.5 -94.5t-65.5 -259.5q0 -98 27.5 -183.5t89 -144.5t147.5 -59
q64 0 112 31t74 83.5t38 110t12 121.5zM705 1204l-256 -266q-11 -2 -22.5 5.5t-12.5 17.5l176 333q26 49 49 49q25 0 63 -30q35 -28 35 -53q0 -24 -32 -56z" />
    <glyph glyph-name="ocircumflex" unicode="&#xf4;" horiz-adv-x="995" 
d="M508 836q175 0 295.5 -119t120.5 -305q0 -193 -120.5 -317t-311.5 -124q-180 0 -300 116.5t-120 305.5q0 191 126 317t310 126zM748 379q0 55 -8.5 108.5t-29 106t-50 92t-75.5 64t-102 24.5q-104 0 -169.5 -94.5t-65.5 -259.5q0 -98 27.5 -183.5t89 -144.5t147.5 -59
q64 0 112 31t74 83.5t38 110t12 121.5zM668 932l-150 188q-19 23 -27.5 23t-27.5 -23l-152 -188q-9 -3 -24.5 3t-16.5 15l185 363q35 66 71 0l187 -363q-1 -9 -19 -15t-26 -3z" />
    <glyph glyph-name="otilde" unicode="&#xf5;" horiz-adv-x="995" 
d="M508 836q175 0 295.5 -119t120.5 -305q0 -193 -120.5 -317t-311.5 -124q-180 0 -300 116.5t-120 305.5q0 191 126 317t310 126zM748 379q0 55 -8.5 108.5t-29 106t-50 92t-75.5 64t-102 24.5q-104 0 -169.5 -94.5t-65.5 -259.5q0 -98 27.5 -183.5t89 -144.5t147.5 -59
q64 0 112 31t74 83.5t38 110t12 121.5zM446 1167h109q64 0 92 13.5t62 64.5q25 12 34 -12q-9 -37 -31.5 -80t-43.5 -66q-22 -19 -43.5 -25.5t-57.5 -6.5h-106q-65 0 -100 -24t-66 -81q-7 -6 -19 -3.5t-16 11.5q6 30 30 85.5t46 76.5q42 47 110 47z" />
    <glyph glyph-name="odieresis" unicode="&#xf6;" horiz-adv-x="995" 
d="M508 836q175 0 295.5 -119t120.5 -305q0 -193 -120.5 -317t-311.5 -124q-180 0 -300 116.5t-120 305.5q0 191 126 317t310 126zM748 379q0 55 -8.5 108.5t-29 106t-50 92t-75.5 64t-102 24.5q-104 0 -169.5 -94.5t-65.5 -259.5q0 -98 27.5 -183.5t89 -144.5t147.5 -59
q64 0 112 31t74 83.5t38 110t12 121.5zM307 1028q-43 0 -71 26.5t-29 73.5q-2 45 27 76t73 31q43 0 73 -30t30 -68q0 -47 -29.5 -78t-73.5 -31zM666 1028q-44 0 -74 28t-31 74q0 43 30.5 74t74.5 31q42 0 70 -29.5t28 -66.5q0 -48 -27 -79.5t-71 -31.5z" />
    <glyph glyph-name="divide" unicode="&#xf7;" horiz-adv-x="1024" 
d="M508 262q36 0 63 -27t27 -63q0 -38 -27 -65t-63 -27q-38 0 -65 27t-27 65q0 37 27 63.5t65 26.5zM508 580q-38 0 -65 27t-27 65q0 37 27 63.5t65 26.5q36 0 63 -27t27 -63q0 -38 -27 -65t-63 -27zM907 471v-100h-788v100h788z" />
    <glyph glyph-name="oslash" unicode="&#xf8;" horiz-adv-x="995" 
d="M295 180l358 518q-70 76 -170 76q-108 0 -174.5 -94t-66.5 -260q0 -143 53 -240zM696 639l-362 -520q73 -86 178 -86q67 0 116 31t75.5 83.5t38.5 110t12 121.5q0 150 -58 260zM840 846l-70 -101q72 -57 113 -142.5t41 -190.5q0 -193 -120.5 -317t-311.5 -124
q-126 0 -220 58l-75 -113q-20 -1 -35.5 12t-18.5 33l74 107q-145 116 -145 325q0 191 126 317t310 126q112 0 205 -52l69 101q19 2 38 -10t20 -29z" />
    <glyph glyph-name="ugrave" unicode="&#xf9;" horiz-adv-x="1048" 
d="M326 643v-342q0 -45 4.5 -79t17.5 -64.5t34 -50t54.5 -30.5t79.5 -11q42 0 87.5 16t78.5 45q41 38 41 119v336q0 34 -1 56t-6 39t-8 25.5t-15 17t-19 12t-27 11.5l-26 11q-11 6 -10.5 22.5t12.5 22.5q65 2 136 12.5t103 24.5q16 -3 19 -15q-7 -68 -7 -178v-344
q0 -130 11.5 -176.5t52.5 -46.5q32 0 80 10q10 -8 10 -30.5t-12 -28.5l-27.5 -5.5t-31 -6t-30.5 -6.5t-33.5 -7.5t-31 -7.5t-32.5 -9.5t-29 -10t-29 -11.5t-24 -12q-18 0 -25 14v84q0 29 -18 29q-50 -32 -77 -48t-89 -37.5t-117 -21.5q-131 0 -189.5 64t-58.5 192v342
q0 101 -8.5 127.5t-52.5 46.5l-25 11q-9 7 -7.5 24t11.5 21q122 3 219 37q18 -3 21 -15q-6 -53 -6 -178zM403 1300l162 -329q0 -12 -16 -19.5t-27 -5.5l-239 260q-35 38 -35 62q0 20 39 51q45 29 69 29q26 0 47 -48z" />
    <glyph glyph-name="uacute" unicode="&#xfa;" horiz-adv-x="1048" 
d="M326 643v-342q0 -45 4.5 -79t17.5 -64.5t34 -50t54.5 -30.5t79.5 -11q42 0 87.5 16t78.5 45q41 38 41 119v336q0 34 -1 56t-6 39t-8 25.5t-15 17t-19 12t-27 11.5l-26 11q-11 6 -10.5 22.5t12.5 22.5q65 2 136 12.5t103 24.5q16 -3 19 -15q-7 -68 -7 -178v-344
q0 -130 11.5 -176.5t52.5 -46.5q32 0 80 10q10 -8 10 -30.5t-12 -28.5l-27.5 -5.5t-31 -6t-30.5 -6.5t-33.5 -7.5t-31 -7.5t-32.5 -9.5t-29 -10t-29 -11.5t-24 -12q-18 0 -25 14v84q0 29 -18 29q-50 -32 -77 -48t-89 -37.5t-117 -21.5q-131 0 -189.5 64t-58.5 192v342
q0 101 -8.5 127.5t-52.5 46.5l-25 11q-9 7 -7.5 24t11.5 21q122 3 219 37q18 -3 21 -15q-6 -53 -6 -178zM727 1221l-256 -267q-11 -2 -22.5 5.5t-12.5 17.5l176 334q26 49 50 49t63 -31q35 -28 35 -53q0 -22 -33 -55z" />
    <glyph glyph-name="ucircumflex" unicode="&#xfb;" horiz-adv-x="1048" 
d="M326 643v-342q0 -45 4.5 -79t17.5 -64.5t34 -50t54.5 -30.5t79.5 -11q42 0 87.5 16t78.5 45q41 38 41 119v336q0 34 -1 56t-6 39t-8 25.5t-15 17t-19 12t-27 11.5l-26 11q-11 6 -10.5 22.5t12.5 22.5q65 2 136 12.5t103 24.5q16 -3 19 -15q-7 -68 -7 -178v-344
q0 -130 11.5 -176.5t52.5 -46.5q32 0 80 10q10 -8 10 -30.5t-12 -28.5l-27.5 -5.5t-31 -6t-30.5 -6.5t-33.5 -7.5t-31 -7.5t-32.5 -9.5t-29 -10t-29 -11.5t-24 -12q-18 0 -25 14v84q0 29 -18 29q-50 -32 -77 -48t-89 -37.5t-117 -21.5q-131 0 -189.5 64t-58.5 192v342
q0 101 -8.5 127.5t-52.5 46.5l-25 11q-9 7 -7.5 24t11.5 21q122 3 219 37q18 -3 21 -15q-6 -53 -6 -178zM684 952l-149 189q-19 23 -28 23t-28 -23l-151 -189q-9 -3 -24.5 3.5t-16.5 15.5l184 362q36 67 72 0l186 -362q-1 -9 -19 -15.5t-26 -3.5z" />
    <glyph glyph-name="udieresis" unicode="&#xfc;" horiz-adv-x="1048" 
d="M326 643v-342q0 -45 4.5 -79t17.5 -64.5t34 -50t54.5 -30.5t79.5 -11q42 0 87.5 16t78.5 45q41 38 41 119v336q0 34 -1 56t-6 39t-8 25.5t-15 17t-19 12t-27 11.5l-26 11q-11 6 -10.5 22.5t12.5 22.5q65 2 136 12.5t103 24.5q16 -3 19 -15q-7 -68 -7 -178v-344
q0 -130 11.5 -176.5t52.5 -46.5q32 0 80 10q10 -8 10 -30.5t-12 -28.5l-27.5 -5.5t-31 -6t-30.5 -6.5t-33.5 -7.5t-31 -7.5t-32.5 -9.5t-29 -10t-29 -11.5t-24 -12q-18 0 -25 14v84q0 29 -18 29q-50 -32 -77 -48t-89 -37.5t-117 -21.5q-131 0 -189.5 64t-58.5 192v342
q0 101 -8.5 127.5t-52.5 46.5l-25 11q-9 7 -7.5 24t11.5 21q122 3 219 37q18 -3 21 -15q-6 -53 -6 -178zM330 1028q-44 0 -72 27t-29 73q-2 44 27.5 75.5t73.5 31.5q43 0 72.5 -30t29.5 -68q0 -47 -29 -78t-73 -31zM688 1028q-44 0 -73.5 28t-30.5 74q0 43 30 74t74 31
q42 0 70 -29.5t28 -66.5q0 -48 -27 -79.5t-71 -31.5z" />
    <glyph glyph-name="yacute" unicode="&#xfd;" horiz-adv-x="897" 
d="M139 -510q-43 0 -66.5 24.5t-23.5 63.5q0 40 23 61t59 21h39q45 0 68 37q81 126 118 227q21 56 21 88q0 29 -6.5 55t-28.5 87l-160 438q-34 93 -50 116q-25 35 -71 44l-51 10q-9 7 -7.5 27t13.5 24q99 -6 195 -6q79 0 178 6q12 -4 13.5 -24t-9.5 -27l-51 -10
q-45 -9 -45 -27q0 -21 59 -193l66 -188q51 -141 59 -145q13 9 76 151l70 162q71 167 71 205q0 27 -49 35l-63 10q-11 7 -9.5 27t13.5 24q99 -6 180 -6q70 0 156 6q12 -6 13.5 -24t-9.5 -27l-35 -6q-48 -9 -82.5 -54.5t-91.5 -162.5l-115 -236q-150 -302 -336 -717
q-43 -96 -131 -96zM725 1204l-256 -266q-11 -2 -22.5 5.5t-12.5 17.5l176 333q26 49 49 49q26 0 64 -30q35 -28 35 -53q0 -23 -33 -56z" />
    <glyph glyph-name="thorn" unicode="&#xfe;" horiz-adv-x="1021" 
d="M309 -78v-215q0 -112 11.5 -139.5t66.5 -34.5l80 -10q10 -8 8.5 -27t-12.5 -24q-147 6 -230 6q-106 0 -192 -6q-11 5 -12.5 24t8.5 27l43 6q55 7 66.5 35.5t11.5 142.5v1407q0 92 -9.5 117.5t-54.5 52.5l-20 12q-8 4 -8 20t8 21q12 5 57 19.5t88 31.5t78 35q14 0 20 -12
q-8 -144 -8 -254v-391q0 -11 4.5 -19t10.5 -8q2 1 37 19.5t67.5 34t84.5 29.5t97 14q152 0 246 -107t94 -262q0 -217 -139 -356.5t-354 -139.5q-79 0 -119 9q-29 -6 -29 -58zM309 559v-352q0 -43 14.5 -67.5t49.5 -51.5q61 -49 153 -49q117 0 187.5 100.5t70.5 253.5
q0 143 -72.5 243.5t-203.5 100.5q-60 0 -107 -17.5t-67 -39.5q-25 -32 -25 -121z" />
    <glyph glyph-name="ydieresis" unicode="&#xff;" horiz-adv-x="897" 
d="M139 -510q-43 0 -66.5 24.5t-23.5 63.5q0 40 23 61t59 21h39q45 0 68 37q81 126 118 227q21 56 21 88q0 29 -6.5 55t-28.5 87l-160 438q-34 93 -50 116q-25 35 -71 44l-51 10q-9 7 -7.5 27t13.5 24q99 -6 195 -6q79 0 178 6q12 -4 13.5 -24t-9.5 -27l-51 -10
q-45 -9 -45 -27q0 -21 59 -193l66 -188q51 -141 59 -145q13 9 76 151l70 162q71 167 71 205q0 27 -49 35l-63 10q-11 7 -9.5 27t13.5 24q99 -6 180 -6q70 0 156 6q12 -6 13.5 -24t-9.5 -27l-35 -6q-48 -9 -82.5 -54.5t-91.5 -162.5l-115 -236q-150 -302 -336 -717
q-43 -96 -131 -96zM313 1028q-43 0 -71 26.5t-29 73.5q-2 45 27 76t73 31q43 0 73 -30t30 -68q0 -47 -29.5 -78t-73.5 -31zM672 1028q-44 0 -74 28t-31 74q0 43 30.5 74t74.5 31q42 0 70 -29.5t28 -66.5q0 -48 -27 -79.5t-71 -31.5z" />
    <glyph glyph-name="Amacron" unicode="&#x100;" horiz-adv-x="1275" 
d="M924 197l-90 278q-11 34 -24.5 42.5t-59.5 8.5h-310q-39 0 -53.5 -8.5t-24.5 -40.5l-71 -215q-45 -134 -45 -170q0 -20 12 -29t47 -12l68 -6q11 -7 10 -26t-14 -25q-29 2 -213 6q-32 0 -197 -6q-9 6 -11 24.5t7 26.5l68 6q85 7 122 101q11 28 41 101t66 163.5t74 191.5
l209 553q41 106 34 146q55 16 107 77q26 0 31 -18q30 -98 90 -274l280 -824q44 -131 75.5 -170t98.5 -47l56 -6q10 -8 9 -26t-9 -25q-126 6 -248 6q-59 0 -236 -6q-12 6 -13.5 25t9.5 26l60 6q71 7 71 37q0 29 -26 109zM557 1014l-129 -357q-12 -35 -6 -42t49 -7h252
q44 0 51.5 11.5t-6.5 52.5l-111 334q-32 97 -47 129h-4q-9 -15 -49 -121zM870 1479h-450q-17 20 -17 58t17 58h450q19 -20 19 -58t-19 -58z" />
    <glyph glyph-name="amacron" unicode="&#x101;" horiz-adv-x="827" 
d="M242 336l243 88q22 7 28.5 20t6.5 39l2 95q1 32 -5 60.5t-21 56.5t-46.5 44.5t-76.5 16.5q-48 0 -88 -24t-43 -68q-3 -57 -21 -70q-22 -18 -56.5 -28.5t-60.5 -10.5q-28 0 -28 29q0 51 63.5 111t154 100.5t163.5 40.5q109 0 163.5 -62t49.5 -178l-13 -356
q-8 -179 95 -179q25 0 51 13q23 14 26 14q6 0 10.5 -8t4.5 -19q0 -7 -21 -27.5t-63.5 -41.5t-87.5 -21q-83 0 -133 64q-19 28 -33 28q-4 0 -9.5 -1.5t-13.5 -6t-15 -8.5t-20 -11.5t-22 -12.5q-34 -19 -48 -26t-43.5 -16.5t-55.5 -9.5q-91 0 -144 47q-63 57 -63 144
q0 61 37 100t133 74zM229 186q0 -23 9.5 -48.5t40.5 -50t79 -24.5q29 0 68.5 17.5t56.5 34.5q12 12 18 28.5t7 27.5t2 40l4 121q0 16 -5 21t-15 5q-22 0 -84 -20q-99 -34 -140 -65t-41 -87zM616 1063h-417q-17 22 -17 58.5t17 58.5h417q14 -22 14 -58.5t-14 -58.5z" />
    <glyph glyph-name="Abreve" unicode="&#x102;" horiz-adv-x="1275" 
d="M924 197l-90 278q-11 34 -24.5 42.5t-59.5 8.5h-310q-39 0 -53.5 -8.5t-24.5 -40.5l-71 -215q-45 -134 -45 -170q0 -20 12 -29t47 -12l68 -6q11 -7 10 -26t-14 -25q-29 2 -213 6q-32 0 -197 -6q-9 6 -11 24.5t7 26.5l68 6q85 7 122 101q11 28 41 101t66 163.5t74 191.5
l209 553q41 106 34 146q55 16 107 77q26 0 31 -18q30 -98 90 -274l280 -824q44 -131 75.5 -170t98.5 -47l56 -6q10 -8 9 -26t-9 -25q-126 6 -248 6q-59 0 -236 -6q-12 6 -13.5 25t9.5 26l60 6q71 7 71 37q0 29 -26 109zM557 1014l-129 -357q-12 -35 -6 -42t49 -7h252
q44 0 51.5 11.5t-6.5 52.5l-111 334q-32 97 -47 129h-4q-9 -15 -49 -121zM659 1464q-121 0 -183.5 65.5t-59.5 196.5q8 8 29 8t28 -8q36 -135 186 -135q75 0 123 36t66 99q8 8 28 8t27 -8q3 -130 -60 -196t-184 -66z" />
    <glyph glyph-name="abreve" unicode="&#x103;" horiz-adv-x="827" 
d="M242 336l243 88q22 7 28.5 20t6.5 39l2 95q1 32 -5 60.5t-21 56.5t-46.5 44.5t-76.5 16.5q-48 0 -88 -24t-43 -68q-3 -57 -21 -70q-22 -18 -56.5 -28.5t-60.5 -10.5q-28 0 -28 29q0 51 63.5 111t154 100.5t163.5 40.5q109 0 163.5 -62t49.5 -178l-13 -356
q-8 -179 95 -179q25 0 51 13q23 14 26 14q6 0 10.5 -8t4.5 -19q0 -7 -21 -27.5t-63.5 -41.5t-87.5 -21q-83 0 -133 64q-19 28 -33 28q-4 0 -9.5 -1.5t-13.5 -6t-15 -8.5t-20 -11.5t-22 -12.5q-34 -19 -48 -26t-43.5 -16.5t-55.5 -9.5q-91 0 -144 47q-63 57 -63 144
q0 61 37 100t133 74zM229 186q0 -23 9.5 -48.5t40.5 -50t79 -24.5q29 0 68.5 17.5t56.5 34.5q12 12 18 28.5t7 27.5t2 40l4 121q0 16 -5 21t-15 5q-22 0 -84 -20q-99 -34 -140 -65t-41 -87zM410 1016q-108 0 -164 67t-49 201q7 6 22 6t23 -6q17 -76 65 -113.5t103 -37.5
t103 37.5t67 113.5q6 6 21 6t24 -6q6 -134 -50.5 -201t-164.5 -67z" />
    <glyph glyph-name="Aogonek" unicode="&#x104;" horiz-adv-x="1275" 
d="M471 608h252q44 0 51.5 11.5t-6.5 52.5l-111 334q-32 97 -47 129h-4q-9 -15 -49 -121l-129 -357q-12 -35 -6 -42t49 -7zM750 526h-310q-39 0 -53.5 -8.5t-24.5 -40.5l-71 -215q-45 -134 -45 -170q0 -20 12 -29t47 -12l68 -6q11 -7 10 -26t-14 -25q-29 2 -213 6
q-32 0 -197 -6q-9 6 -11 24.5t7 26.5l68 6q85 7 122 101q11 28 41 101t66 163.5t74 191.5l209 553q41 106 34 146q55 16 107 77q26 0 31 -18q30 -98 90 -274l280 -824q44 -131 75.5 -170t98.5 -47l56 -6q10 -8 9 -26t-9 -25q-126 6 -248 6h-23q-32 -79 -32 -172
q0 -72 41.5 -112t101.5 -40q53 0 86 17q16 -10 16 -35q-70 -86 -202 -86q-81 0 -129 47.5t-48 126.5q0 102 115 252q-80 0 -162 -4q-12 6 -13.5 25t9.5 26l60 6q71 7 71 37q0 29 -26 109l-90 278q-11 34 -24.5 42.5t-59.5 8.5z" />
    <glyph glyph-name="aogonek" unicode="&#x105;" horiz-adv-x="827" 
d="M229 186q0 -23 9.5 -48.5t40.5 -50t79 -24.5q29 0 68.5 17.5t56.5 34.5q12 12 18 28.5t7 27.5t2 40l4 121q0 16 -5 21t-15 5q-22 0 -84 -20q-99 -34 -140 -65t-41 -87zM242 336l243 88q22 7 28.5 20t6.5 39l2 95q1 32 -5 60.5t-21 56.5t-46.5 44.5t-76.5 16.5
q-48 0 -88 -24t-43 -68q-3 -57 -21 -70q-22 -18 -56.5 -28.5t-60.5 -10.5q-28 0 -28 29q0 51 63.5 111t154 100.5t163.5 40.5q109 0 163.5 -62t49.5 -178l-13 -356q-8 -179 95 -179q25 0 51 13q23 14 26 14q6 0 10.5 -8t4.5 -19q0 -6 -56 -59q-56 -47 -88 -111.5t-32 -130.5
q0 -42 25 -67t63 -25q60 0 100 29q18 -5 18 -31q-35 -47 -85.5 -70.5t-100.5 -23.5q-73 0 -112 44t-39 97q0 125 157 260q-12 -2 -22 -2q-83 0 -133 64q-19 28 -33 28q-4 0 -9.5 -1.5t-13.5 -6t-15 -8.5t-20 -11.5t-22 -12.5q-34 -19 -48 -26t-43.5 -16.5t-55.5 -9.5
q-91 0 -144 47q-63 57 -63 144q0 61 37 100t133 74z" />
    <glyph glyph-name="Cacute" unicode="&#x106;" horiz-adv-x="1425" 
d="M90 668q0 167 69 308t189 234q223 174 553 174q82 0 186 -14t177 -35q41 -10 57 -8q5 -112 29 -301q-7 -10 -26.5 -11.5t-29.5 7.5q-67 299 -420 299q-95 0 -180.5 -23.5t-158.5 -74t-126.5 -123t-83.5 -175.5t-30 -227q0 -157 47.5 -285t130.5 -210.5t193 -127
t237 -44.5q76 0 141.5 19.5t110 48.5t81.5 70t58 78t37 77q10 8 28.5 4.5t24.5 -13.5q-10 -75 -41.5 -161.5t-56.5 -118.5q-22 -3 -72 -21q-42 -15 -138.5 -31t-184.5 -16q-305 0 -510 137q-132 91 -211.5 233.5t-79.5 330.5zM1104 1593l-342 -147q-11 3 -18 18t-3 31
l289 234q39 28 55 28q13 0 30 -12t28 -35q26 -51 14 -84q-14 -18 -53 -33z" />
    <glyph glyph-name="cacute" unicode="&#x107;" horiz-adv-x="819" 
d="M569 836q106 0 183 -35q30 -26 30 -82q0 -29 -13.5 -52.5t-31.5 -23.5q-17 0 -28 14q-38 46 -92 77.5t-113 31.5q-115 0 -199 -88t-84 -242q0 -62 21.5 -122.5t61 -112t104 -83.5t143.5 -32q83 0 135 32t92 91q12 3 23.5 -6t13.5 -23q-33 -72 -93.5 -121t-122.5 -68.5
t-126 -19.5q-172 0 -280 105q-119 116 -119 303q0 85 30.5 165t89 146t156 106t219.5 40zM666 1190l-256 -266q-11 -2 -22.5 5t-12.5 17l176 334q26 49 49 49q25 0 64 -31q34 -27 34 -53q0 -23 -32 -55z" />
    <glyph glyph-name="Ccaron" unicode="&#x10c;" horiz-adv-x="1425" 
d="M90 668q0 167 69 308t189 234q223 174 553 174q82 0 186 -14t177 -35q41 -10 57 -8q5 -112 29 -301q-7 -10 -26.5 -11.5t-29.5 7.5q-67 299 -420 299q-95 0 -180.5 -23.5t-158.5 -74t-126.5 -123t-83.5 -175.5t-30 -227q0 -157 47.5 -285t130.5 -210.5t193 -127
t237 -44.5q76 0 141.5 19.5t110 48.5t81.5 70t58 78t37 77q10 8 28.5 4.5t24.5 -13.5q-10 -75 -41.5 -161.5t-56.5 -118.5q-22 -3 -72 -21q-42 -15 -138.5 -31t-184.5 -16q-305 0 -510 137q-132 91 -211.5 233.5t-79.5 330.5zM815 1460l-254 221q0 13 10 26t21 13l233 -112
q21 -12 31.5 -11.5t34.5 11.5l235 112q10 -1 16.5 -13.5t6.5 -25.5l-250 -221q-42 -36 -84 0z" />
    <glyph glyph-name="ccaron" unicode="&#x10d;" horiz-adv-x="819" 
d="M569 836q106 0 183 -35q30 -26 30 -82q0 -29 -13.5 -52.5t-31.5 -23.5q-17 0 -28 14q-38 46 -92 77.5t-113 31.5q-115 0 -199 -88t-84 -242q0 -62 21.5 -122.5t61 -112t104 -83.5t143.5 -32q83 0 135 32t92 91q12 3 23.5 -6t13.5 -23q-33 -72 -93.5 -121t-122.5 -68.5
t-126 -19.5q-172 0 -280 105q-119 116 -119 303q0 85 30.5 165t89 146t156 106t219.5 40zM313 1362l154 -191q15 -20 27.5 -19.5t27.5 19.5l154 191q11 2 23.5 -5.5t13.5 -21.5l-185 -362q-15 -30 -33.5 -30t-33.5 30l-189 362q1 13 15.5 20t25.5 7z" />
    <glyph glyph-name="Dcaron" unicode="&#x10e;" horiz-adv-x="1597" 
d="M262 307v778q0 113 -17 151.5t-79 47.5l-45 6q-13 8 -13 26.5t15 24.5q296 17 514 17q282 0 450 -62q202 -73 309 -234.5t107 -369.5q0 -197 -92.5 -356.5t-265.5 -253.5q-181 -98 -459 -98q-73 0 -189 8t-145 8q-112 0 -256 -6q-9 5 -11 23.5t7 27.5l47 6q32 4 50.5 8.5
t34 18t22 26t11 46t5 64.5t0.5 93zM430 1110v-756q0 -89 8 -138.5t33 -84.5q33 -46 92.5 -65t159.5 -19q146 0 257 46t180 132t103.5 202t34.5 261q0 52 -7.5 104.5t-27 113.5t-50 115t-81.5 105t-116 87.5t-158.5 58.5t-204.5 22q-165 0 -202 -28q-21 -16 -21 -156z
M666 1460l-254 221q0 13 9.5 26t20.5 13l234 -112q21 -12 31 -11.5t34 11.5l236 112q10 -1 16 -13.5t6 -25.5l-249 -221q-42 -36 -84 0z" />
    <glyph glyph-name="dcaron" unicode="&#x10f;" horiz-adv-x="1042" 
d="M868 1198v-899q0 -137 10 -187.5t50 -50.5q23 0 88 21q11 -3 11 -31t-13 -35q-66 -9 -147.5 -28.5t-123.5 -36.5q-22 0 -22 16v35q0 56 -4 64h-8q-73 -50 -131 -72.5t-127 -22.5q-167 0 -273 114.5t-106 279.5q0 140 65.5 248.5t178 165.5t251.5 57q83 0 138 -19
q12 0 12 29v309q0 92 -9.5 117.5t-54.5 52.5l-20 12q-7 5 -7 21t7 20q143 45 221 86q14 0 20 -12q-6 -183 -6 -254zM717 203v403q0 47 -23 80q-26 36 -71 61t-101 25q-133 0 -207.5 -99t-74.5 -241q0 -149 81 -255.5t224 -106.5q42 0 87.5 16.5t69.5 40.5q15 15 15 76z
M1040 1464q57 0 91 -49t34 -119q0 -85 -54 -146.5t-128 -92.5q-18 6 -22.5 22t6.5 25q22 15 35.5 26t33 30.5t29.5 41.5t10 45q0 39 -20.5 61t-48.5 27q-48 12 -48 58q0 27 19 49t63 22z" />
    <glyph glyph-name="Dcroat" unicode="&#x110;" horiz-adv-x="1609" 
d="M262 307v361h-184q-14 10 -14 35t14 36h184v295q0 149 -17.5 199t-88.5 59l-35 4q-13 6 -13 25t15 25q348 12 522 12q141 0 244.5 -12.5t197.5 -47.5q202 -73 309 -234t107 -368q0 -200 -92.5 -359.5t-265.5 -254.5q-181 -98 -459 -98q-73 0 -189 8t-145 8
q-112 0 -256 -6q-9 5 -11 23.5t7 27.5l47 6q32 4 50.5 8.5t34 18t22 26t11 46t5 64.5t0.5 93zM430 1110v-371h295q13 -10 13 -35.5t-13 -35.5h-295v-314q0 -89 8 -138.5t33 -84.5q33 -46 92.5 -65t159.5 -19q146 0 257 46t180 132t103.5 202t34.5 261q0 75 -14.5 149
t-58.5 159t-112.5 149t-187 106.5t-272.5 42.5q-165 0 -202 -28q-21 -16 -21 -156z" />
    <glyph glyph-name="dcroat" unicode="&#x111;" horiz-adv-x="1042" 
d="M717 203v403q0 47 -23 80q-26 36 -71 61t-101 25q-133 0 -207.5 -99t-74.5 -241q0 -149 81 -255.5t224 -106.5q42 0 87.5 16.5t69.5 40.5q15 15 15 76zM1014 1155v-80h-146v-776q0 -137 10 -187.5t50 -50.5q23 0 88 21q11 -3 11 -31t-13 -35q-66 -9 -147.5 -28.5
t-123.5 -36.5q-22 0 -22 16v35q0 56 -4 64h-8q-73 -50 -131 -72.5t-127 -22.5q-167 0 -273 114.5t-106 279.5q0 140 65.5 248.5t178 165.5t251.5 57q83 0 138 -19q12 0 12 29v229h-236v80h236q0 91 -10 117t-54 53l-20 12q-7 5 -7 21t7 20q143 45 221 86q14 0 20 -12
q-6 -183 -6 -254v-43h146z" />
    <glyph glyph-name="Emacron" unicode="&#x112;" horiz-adv-x="1196" 
d="M262 307v737q0 53 -0.5 81t-3 60t-8 46.5t-13.5 30t-22.5 22t-32.5 11.5t-45 8l-33 4q-9 6 -6.5 26t11.5 25q132 -6 241 -6h385q252 0 277 6q10 -30 32 -273q-6 -9 -24.5 -11t-26.5 7q-30 94 -49 123q-35 54 -106 72q-52 12 -199 12h-147q-45 0 -53.5 -11.5t-8.5 -70.5
v-409q0 -42 10.5 -50t57.5 -8h118q134 0 175 13q20 7 31 21t18 50l16 84q7 9 27 8.5t26 -10.5q0 -21 -4 -92.5t-4 -114.5q0 -41 4 -109t4 -87q-6 -10 -26 -10.5t-27 8.5l-18 80q-14 65 -64 77q-40 11 -158 11h-118q-47 0 -57.5 -8.5t-10.5 -47.5v-288q0 -90 8 -139t31 -74
q23 -23 74.5 -35.5t173.5 -12.5q117 0 172.5 6.5t89.5 24.5q62 34 145 199q10 8 28 3.5t24 -17.5q-10 -53 -41.5 -148t-51.5 -137q-276 6 -548 6h-185q-97 0 -278 -6q-9 5 -11 23.5t7 27.5l67 6q37 3 58.5 10.5t36.5 21t21 45.5t8.5 70t2.5 109zM840 1479h-451
q-17 20 -17 58t17 58h451q19 -20 19 -58t-19 -58z" />
    <glyph glyph-name="emacron" unicode="&#x113;" horiz-adv-x="811" 
d="M645 524h-379q-39 0 -47 -8t-8 -47q0 -163 91 -273t249 -110q55 0 99 21.5t89 78.5q15 4 25 -3t12 -21q-47 -96 -138.5 -143.5t-182.5 -47.5q-96 0 -173.5 37t-123.5 98q-86 113 -86 267q0 94 30 178.5t83 147.5t130.5 100t167.5 37q127 0 209 -73.5t82 -170.5
q0 -37 -8 -53q-8 -15 -121 -15zM248 586h145q186 0 213 20q12 8 12 39q0 51 -38 90t-119 39q-85 0 -155.5 -61t-72.5 -117q0 -10 15 -10zM662 1042h-400q-15 19 -15 55.5t15 55.5h400q14 -19 14 -55.5t-14 -55.5z" />
    <glyph glyph-name="Edotaccent" unicode="&#x116;" horiz-adv-x="1196" 
d="M262 307v737q0 53 -0.5 81t-3 60t-8 46.5t-13.5 30t-22.5 22t-32.5 11.5t-45 8l-33 4q-9 6 -6.5 26t11.5 25q132 -6 241 -6h385q252 0 277 6q10 -30 32 -273q-6 -9 -24.5 -11t-26.5 7q-30 94 -49 123q-35 54 -106 72q-52 12 -199 12h-147q-45 0 -53.5 -11.5t-8.5 -70.5
v-409q0 -42 10.5 -50t57.5 -8h118q134 0 175 13q20 7 31 21t18 50l16 84q7 9 27 8.5t26 -10.5q0 -21 -4 -92.5t-4 -114.5q0 -41 4 -109t4 -87q-6 -10 -26 -10.5t-27 8.5l-18 80q-14 65 -64 77q-40 11 -158 11h-118q-47 0 -57.5 -8.5t-10.5 -47.5v-288q0 -90 8 -139t31 -74
q23 -23 74.5 -35.5t173.5 -12.5q117 0 172.5 6.5t89.5 24.5q62 34 145 199q10 8 28 3.5t24 -17.5q-10 -53 -41.5 -148t-51.5 -137q-276 6 -548 6h-185q-97 0 -278 -6q-9 5 -11 23.5t7 27.5l67 6q37 3 58.5 10.5t36.5 21t21 45.5t8.5 70t2.5 109zM631 1448q-49 0 -79.5 28.5
t-31.5 79.5q-2 46 30 78.5t81 32.5q46 0 77 -32t31 -72q0 -51 -30.5 -83t-77.5 -32z" />
    <glyph glyph-name="edotaccent" unicode="&#x117;" horiz-adv-x="811" 
d="M645 524h-379q-39 0 -47 -8t-8 -47q0 -163 91 -273t249 -110q55 0 99 21.5t89 78.5q15 4 25 -3t12 -21q-47 -96 -138.5 -143.5t-182.5 -47.5q-96 0 -173.5 37t-123.5 98q-86 113 -86 267q0 94 30 178.5t83 147.5t130.5 100t167.5 37q127 0 209 -73.5t82 -170.5
q0 -37 -8 -53q-8 -15 -121 -15zM248 586h145q186 0 213 20q12 8 12 39q0 51 -38 90t-119 39q-85 0 -155.5 -61t-72.5 -117q0 -10 15 -10zM475 1237q44 0 71 -31.5t27 -75.5q0 -51 -29 -76.5t-75 -25.5t-74 29t-28 71q0 50 30.5 79.5t77.5 29.5z" />
    <glyph glyph-name="Eogonek" unicode="&#x118;" horiz-adv-x="1196" 
d="M262 307v737q0 53 -0.5 81t-3 60t-8 46.5t-13.5 30t-22.5 22t-32.5 11.5t-45 8l-33 4q-9 6 -6.5 26t11.5 25q132 -6 241 -6h385q252 0 277 6q10 -30 32 -273q-6 -9 -24.5 -11t-26.5 7q-30 94 -49 123q-35 54 -106 72q-52 12 -199 12h-147q-45 0 -53.5 -11.5t-8.5 -70.5
v-409q0 -42 10.5 -50t57.5 -8h118q134 0 175 13q20 7 31 21t18 50l16 84q7 9 27 8.5t26 -10.5q0 -21 -4 -92.5t-4 -114.5q0 -41 4 -109t4 -87q-6 -10 -26 -10.5t-27 8.5l-18 80q-14 65 -64 77q-40 11 -158 11h-118q-47 0 -57.5 -8.5t-10.5 -47.5v-288q0 -90 8 -139t31 -74
q23 -23 74.5 -35.5t173.5 -12.5q117 0 172.5 6.5t89.5 24.5q62 34 145 199q10 8 28 3.5t24 -17.5q-10 -53 -41.5 -148t-51.5 -137q-55 0 -82 2q-49 -90 -49 -178q0 -65 42 -103.5t102 -38.5q53 0 86 17q16 -10 16 -35q-70 -86 -211 -86q-73 0 -120.5 48.5t-47.5 117.5
q0 124 131 258q-278 4 -415 4h-185q-97 0 -278 -6q-9 5 -11 23.5t7 27.5l67 6q37 3 58.5 10.5t36.5 21t21 45.5t8.5 70t2.5 109z" />
    <glyph glyph-name="eogonek" unicode="&#x119;" horiz-adv-x="811" 
d="M248 586h145q186 0 213 20q12 8 12 39q0 51 -38 90t-119 39q-85 0 -155.5 -61t-72.5 -117q0 -10 15 -10zM483 836q127 0 209 -73.5t82 -170.5q0 -37 -8 -53q-8 -15 -121 -15h-379q-39 0 -47 -8t-8 -47q0 -163 91 -273t249 -110q53 0 97.5 22.5t90.5 77.5q15 4 25 -3
t12 -21q-8 -14 -17.5 -27t-24.5 -29.5t-21.5 -23l-28.5 -28.5l-25 -25q-157 -150 -157 -273q0 -39 25 -63.5t61 -24.5q60 0 100 29q19 -5 19 -31q-34 -46 -87.5 -70t-103.5 -24q-60 0 -98.5 38t-38.5 93q0 58 43.5 126t140.5 159q-28 -10 -51 -13q-32 -4 -51 -4
q-100 0 -178.5 37t-124.5 98q-86 113 -86 267q0 94 30 178.5t83 147.5t130.5 100t167.5 37z" />
    <glyph glyph-name="Ecaron" unicode="&#x11a;" horiz-adv-x="1196" 
d="M262 307v737q0 53 -0.5 81t-3 60t-8 46.5t-13.5 30t-22.5 22t-32.5 11.5t-45 8l-33 4q-9 6 -6.5 26t11.5 25q132 -6 241 -6h385q252 0 277 6q10 -30 32 -273q-6 -9 -24.5 -11t-26.5 7q-30 94 -49 123q-35 54 -106 72q-52 12 -199 12h-147q-45 0 -53.5 -11.5t-8.5 -70.5
v-409q0 -42 10.5 -50t57.5 -8h118q134 0 175 13q20 7 31 21t18 50l16 84q7 9 27 8.5t26 -10.5q0 -21 -4 -92.5t-4 -114.5q0 -41 4 -109t4 -87q-6 -10 -26 -10.5t-27 8.5l-18 80q-14 65 -64 77q-40 11 -158 11h-118q-47 0 -57.5 -8.5t-10.5 -47.5v-288q0 -90 8 -139t31 -74
q23 -23 74.5 -35.5t173.5 -12.5q117 0 172.5 6.5t89.5 24.5q62 34 145 199q10 8 28 3.5t24 -17.5q-10 -53 -41.5 -148t-51.5 -137q-276 6 -548 6h-185q-97 0 -278 -6q-9 5 -11 23.5t7 27.5l67 6q37 3 58.5 10.5t36.5 21t21 45.5t8.5 70t2.5 109zM582 1460l-252 232
q0 14 8.5 27.5t19.5 13.5l234 -117q21 -12 31 -11.5t34 11.5l238 117q9 -1 16 -14t7 -27l-250 -232q-41 -38 -86 0z" />
    <glyph glyph-name="ecaron" unicode="&#x11b;" horiz-adv-x="811" 
d="M645 524h-379q-39 0 -47 -8t-8 -47q0 -163 91 -273t249 -110q55 0 99 21.5t89 78.5q15 4 25 -3t12 -21q-47 -96 -138.5 -143.5t-182.5 -47.5q-96 0 -173.5 37t-123.5 98q-86 113 -86 267q0 94 30 178.5t83 147.5t130.5 100t167.5 37q127 0 209 -73.5t82 -170.5
q0 -37 -8 -53q-8 -15 -121 -15zM248 586h145q186 0 213 20q12 8 12 39q0 51 -38 90t-119 39q-85 0 -155.5 -61t-72.5 -117q0 -10 15 -10zM283 1358l153 -191q15 -20 28 -19.5t28 19.5l153 191q11 2 23.5 -5.5t13.5 -21.5l-184 -362q-15 -30 -34 -30t-34 30l-188 362
q1 13 15.5 20t25.5 7z" />
    <glyph glyph-name="Gbreve" unicode="&#x11e;" horiz-adv-x="1529" 
d="M1327 324v-115q0 -127 49 -146q5 -4 4.5 -12t-6.5 -12q-26 0 -100 -19q-199 -53 -367 -53q-399 0 -624 228q-189 189 -189 464q0 135 46.5 261.5t138.5 224.5q229 239 649 239q129 0 260 -30q108 -22 127 -19q0 -85 31 -297q-4 -12 -25.5 -13.5t-30.5 7.5
q-41 158 -147 224.5t-273 66.5q-116 0 -211.5 -32t-161.5 -87t-111 -130.5t-66 -161t-21 -179.5q0 -119 24 -224t74 -193t122 -151t172.5 -98.5t221.5 -35.5q92 0 150 16.5t76 44.5q20 28 20 117v82q0 49 -0.5 74t-6 50t-12 34.5t-24 19.5t-36.5 13t-54 7l-90 11
q-12 6 -11.5 26t11.5 25q88 -6 293 -6q115 0 217 6q11 -6 11.5 -24t-9.5 -27l-33 -4q-25 -3 -42 -12.5t-26 -21.5t-13.5 -36.5t-5.5 -44t-1 -57.5zM827 1485q-121 0 -183.5 65.5t-59.5 196.5q8 7 29 7t28 -7q36 -133 186 -133q154 0 189 133q8 7 28 7t27 -7q3 -130 -60 -196
t-184 -66z" />
    <glyph glyph-name="gbreve" unicode="&#x11f;" horiz-adv-x="913" 
d="M748 762h165q18 -7 14 -44t-26 -40h-147q4 -35 4 -105q0 -57 -18 -111t-55.5 -103.5t-107.5 -80t-163 -30.5q-15 0 -90 6q-91 -51 -91 -113q0 -37 37.5 -61.5t106.5 -24.5q33 0 115 3t129 3q41 0 74.5 -3.5t75 -17t69.5 -36.5t47.5 -66t19.5 -102q0 -108 -72 -198
t-188.5 -139.5t-249.5 -49.5q-90 0 -158.5 22.5t-106.5 59t-56.5 76t-18.5 80.5q0 49 23 75q20 21 73 73t66 65q36 36 17 49q-61 15 -105.5 62t-44.5 100q0 12 31 34q48 31 108 95q21 25 21 39q-63 33 -108.5 95.5t-45.5 151.5q0 131 98 220.5t236 89.5q101 0 197 -41
q50 -22 71 -27.5t54 -5.5zM555 -66h-70q-141 0 -176 -22q-41 -26 -69.5 -71.5t-28.5 -100.5q0 -88 70.5 -145.5t203.5 -57.5t218 64.5t85 154.5q0 178 -233 178zM444 307q81 0 124.5 58t43.5 155q0 111 -46.5 183.5t-135.5 72.5q-75 0 -123.5 -63t-48.5 -166q0 -106 55 -173
t131 -67zM451 987q-108 0 -164 67t-49 201q8 6 23 6t22 -6q17 -76 65 -113.5t103 -37.5t103 37.5t67 113.5q6 6 21 6t24 -6q6 -134 -50.5 -201t-164.5 -67z" />
    <glyph glyph-name="Gcommaaccent" unicode="&#x122;" horiz-adv-x="1529" 
d="M1327 324v-115q0 -127 49 -146q5 -4 4.5 -12t-6.5 -12q-26 0 -100 -19q-199 -53 -367 -53q-399 0 -624 228q-189 189 -189 464q0 135 46.5 261.5t138.5 224.5q229 239 649 239q129 0 260 -30q108 -22 127 -19q0 -85 31 -297q-4 -12 -25.5 -13.5t-30.5 7.5
q-41 158 -147 224.5t-273 66.5q-116 0 -211.5 -32t-161.5 -87t-111 -130.5t-66 -161t-21 -179.5q0 -119 24 -224t74 -193t122 -151t172.5 -98.5t221.5 -35.5q92 0 150 16.5t76 44.5q20 28 20 117v82q0 49 -0.5 74t-6 50t-12 34.5t-24 19.5t-36.5 13t-54 7l-90 11
q-12 6 -11.5 26t11.5 25q88 -6 293 -6q115 0 217 6q11 -6 11.5 -24t-9.5 -27l-33 -4q-25 -3 -42 -12.5t-26 -21.5t-13.5 -36.5t-5.5 -44t-1 -57.5zM840 -119q51 0 94 -45t43 -125q0 -102 -62.5 -166.5t-162.5 -95.5q-11 6 -14.5 32t3.5 32q48 16 88.5 52.5t40.5 90.5
q0 18 -7 33t-20 26t-22.5 17.5t-22.5 13.5l-14 6q-30 16 -30 51q0 31 23.5 54.5t62.5 23.5z" />
    <glyph glyph-name="gcommaaccent" unicode="&#x123;" horiz-adv-x="913" 
d="M748 762h165q18 -7 14 -44t-26 -40h-147q4 -35 4 -105q0 -57 -18 -111t-55.5 -103.5t-107.5 -80t-163 -30.5q-15 0 -90 6q-91 -51 -91 -113q0 -37 37.5 -61.5t106.5 -24.5q33 0 115 3t129 3q41 0 74.5 -3.5t75 -17t69.5 -36.5t47.5 -66t19.5 -102q0 -108 -72 -198
t-188.5 -139.5t-249.5 -49.5q-90 0 -158.5 22.5t-106.5 59t-56.5 76t-18.5 80.5q0 49 23 75q20 21 73 73t66 65q36 36 17 49q-61 15 -105.5 62t-44.5 100q0 12 31 34q48 31 108 95q21 25 21 39q-63 33 -108.5 95.5t-45.5 151.5q0 131 98 220.5t236 89.5q101 0 197 -41
q50 -22 71 -27.5t54 -5.5zM555 -66h-70q-141 0 -176 -22q-41 -26 -69.5 -71.5t-28.5 -100.5q0 -88 70.5 -145.5t203.5 -57.5t218 64.5t85 154.5q0 178 -233 178zM444 307q81 0 124.5 58t43.5 155q0 111 -46.5 183.5t-135.5 72.5q-75 0 -123.5 -63t-48.5 -166q0 -106 55 -173
t131 -67zM467 1016q-57 0 -97 38t-40 101q0 182 225 244q13 -4 15.5 -23.5t-5.5 -25.5q-43 -12 -82 -46.5t-39 -76.5q0 -14 5 -26.5t11.5 -20.5t17.5 -16t17.5 -11.5t17.5 -8.5l11 -5q29 -19 29 -47q0 -33 -22.5 -54.5t-63.5 -21.5z" />
    <glyph glyph-name="Imacron" unicode="&#x12a;" horiz-adv-x="692" 
d="M262 311v729q0 63 -0.5 95t-5 66.5t-11.5 48.5t-22 28t-34.5 18t-51.5 7l-51 4q-9 6 -7 26t11 25q153 -6 258 -6q101 0 254 6q9 -5 11 -25t-7 -26l-51 -4q-32 -3 -51.5 -7t-34.5 -18t-22 -28t-11.5 -48.5t-5 -66.5t-0.5 -95v-729q0 -47 0.5 -73t2.5 -56.5t4.5 -45
t9.5 -31.5t15 -23.5t22.5 -14t30.5 -10.5t40 -6l51 -6q9 -6 7 -26t-11 -25q-153 6 -254 6q-105 0 -258 -6q-9 5 -11 23.5t7 27.5l51 6q24 3 40 6t30.5 10.5t22.5 14t15 23.5t9.5 31.5t4.5 45t2.5 56.5t0.5 73zM567 1479h-430q-15 20 -15 58t15 58h430q17 -20 17 -58t-17 -58
z" />
    <glyph glyph-name="imacron" unicode="&#x12b;" horiz-adv-x="526" 
d="M201 229v359q0 62 -8 81t-48 46l-18 12q-6 6 -5.5 19.5t7.5 17.5q38 13 108 45.5t103 54.5q17 0 20 -12q-8 -144 -8 -254v-369q0 -113 12 -142t66 -36l43 -6q10 -8 8.5 -27t-12.5 -24q-91 6 -193 6q-106 0 -192 -6q-11 5 -12.5 24t8.5 27l43 6q55 7 66.5 35.5t11.5 142.5
zM477 1053h-418q-17 22 -17 62.5t17 62.5h418q13 -22 13 -62.5t-13 -62.5z" />
    <glyph glyph-name="Iogonek" unicode="&#x12e;" horiz-adv-x="692" 
d="M262 311v729q0 63 -0.5 95t-5 66.5t-11.5 48.5t-22 28t-34.5 18t-51.5 7l-51 4q-9 6 -7 26t11 25q153 -6 258 -6q101 0 254 6q9 -5 11 -25t-7 -26l-51 -4q-32 -3 -51.5 -7t-34.5 -18t-22 -28t-11.5 -48.5t-5 -66.5t-0.5 -95v-729q0 -47 0.5 -73t2.5 -56.5t4.5 -45
t9.5 -31.5t15 -23.5t22.5 -14t30.5 -10.5t40 -6l51 -6q9 -6 7 -26t-11 -25q-153 6 -254 6h-6q-35 -80 -35 -172q0 -72 42 -112t102 -40q53 0 86 17q16 -10 16 -35q-70 -86 -203 -86q-81 0 -128.5 47.5t-47.5 126.5q0 102 115 252q-121 0 -199 -4q-9 5 -11 23.5t7 27.5l51 6
q24 3 40 6t30.5 10.5t22.5 14t15 23.5t9.5 31.5t4.5 45t2.5 56.5t0.5 73z" />
    <glyph glyph-name="iogonek" unicode="&#x12f;" horiz-adv-x="526" 
d="M268 1278q45 0 74 -31.5t29 -75.5q0 -52 -31.5 -79t-77.5 -27t-75 30t-29 72q0 50 31.5 80.5t78.5 30.5zM201 229v359q0 62 -8 81t-48 46l-18 12q-6 6 -5.5 19.5t7.5 17.5q38 13 108 45.5t103 54.5q17 0 20 -12q-8 -144 -8 -254v-369q0 -113 12 -142t66 -36l43 -6
q10 -8 8.5 -27t-12.5 -24q-91 6 -193 6q-34 -78 -34 -172q0 -72 41.5 -112t101.5 -40q53 0 86 17q16 -10 16 -35q-70 -86 -202 -86q-81 0 -128.5 47.5t-47.5 126.5q0 103 114 252q-57 0 -139 -4q-11 5 -12.5 24t8.5 27l43 6q55 7 66.5 35.5t11.5 142.5z" />
    <glyph glyph-name="Idotaccent" unicode="&#x130;" horiz-adv-x="692" 
d="M262 311v729q0 63 -0.5 95t-5 66.5t-11.5 48.5t-22 28t-34.5 18t-51.5 7l-51 4q-9 6 -7 26t11 25q153 -6 258 -6q101 0 254 6q9 -5 11 -25t-7 -26l-51 -4q-32 -3 -51.5 -7t-34.5 -18t-22 -28t-11.5 -48.5t-5 -66.5t-0.5 -95v-729q0 -47 0.5 -73t2.5 -56.5t4.5 -45
t9.5 -31.5t15 -23.5t22.5 -14t30.5 -10.5t40 -6l51 -6q9 -6 7 -26t-11 -25q-153 6 -254 6q-105 0 -258 -6q-9 5 -11 23.5t7 27.5l51 6q24 3 40 6t30.5 10.5t22.5 14t15 23.5t9.5 31.5t4.5 45t2.5 56.5t0.5 73zM348 1448q-48 0 -78.5 28.5t-31.5 79.5q-2 46 29.5 78.5
t80.5 32.5q46 0 77.5 -32t31.5 -72q0 -51 -30.5 -83t-78.5 -32z" />
    <glyph glyph-name="dotlessi" unicode="&#x131;" horiz-adv-x="526" 
d="M201 229v359q0 62 -8 81t-48 46l-18 12q-6 6 -5.5 19.5t7.5 17.5q38 13 108 45.5t103 54.5q17 0 20 -12q-8 -144 -8 -254v-369q0 -113 12 -142t66 -36l43 -6q10 -8 8.5 -27t-12.5 -24q-91 6 -193 6q-106 0 -192 -6q-11 5 -12.5 24t8.5 27l43 6q55 7 66.5 35.5t11.5 142.5
z" />
    <glyph glyph-name="Kcommaaccent" unicode="&#x136;" horiz-adv-x="1382" 
d="M262 307v737q0 63 -0.5 94t-5 65.5t-11.5 48t-21.5 27t-34 17.5t-50.5 7l-51 4q-9 6 -7 26t11 25q150 -6 258 -6q106 0 238 6q9 -5 11 -25t-7 -26l-39 -4q-24 -2 -40 -5t-29.5 -10.5t-21.5 -14.5t-15 -24t-9.5 -31.5t-4.5 -44.5t-2.5 -56t-0.5 -73v-235q0 -78 27 -78
q25 0 57 23q15 13 54.5 51t49.5 47l222 219q33 32 89 91t70 79q15 21 15 33t-35 20l-55 13q-11 10 -9.5 27t13.5 24q108 -6 225 -6q111 0 203 6q10 -7 11.5 -24.5t-7.5 -26.5q-104 -8 -191 -58q-92 -53 -286 -237l-185 -174q-47 -47 -47 -64q0 -15 39 -63q40 -46 134.5 -155
t139.5 -159.5t113.5 -126.5t124.5 -135q74 -74 164 -84l55 -6q10 -8 8.5 -27t-12.5 -24q-79 6 -229 6q-109 0 -250 -6q-11 3 -14 22.5t6 28.5l47 8q49 7 49 21q0 10 -29 47q-17 22 -40.5 48.5t-62.5 69t-67 74.5l-163 185q-108 121 -134 143q-34 29 -65 29
q-22 0 -28.5 -20.5t-6.5 -78.5v-264q0 -47 0.5 -73t2 -56t4.5 -44t9.5 -30.5t14.5 -23t21 -14t28.5 -10.5t38.5 -5l55 -6q9 -6 7 -26t-11 -25q-150 6 -250 6q-111 0 -237 -6q-9 5 -11 22.5t7 28.5l41 6q22 3 36.5 6t27 11t20 14t13.5 23t8.5 30.5t4.5 43.5t2 55.5v72.5z
M702 -119q55 0 102.5 -45.5t47.5 -124.5q0 -102 -65.5 -167t-174.5 -95q-13 6 -19.5 32t1.5 32q50 15 90.5 52t40.5 91q0 11 -3 21.5t-7.5 18.5t-12 16t-13.5 13t-14.5 10t-13.5 7.5l-12 6t-8 3.5q-35 17 -35 51q0 31 26 54.5t70 23.5z" />
    <glyph glyph-name="kcommaaccent" unicode="&#x137;" horiz-adv-x="987" 
d="M180 229v926q0 92 -9 117.5t-54 52.5l-21 12q-8 5 -8 21t8 20q143 45 221 86q15 0 21 -12q-6 -183 -6 -254v-702q0 -21 5.5 -26t31.5 -5q62 0 139 80l84 90q72 77 72 94q0 16 -46 21l-49 6q-13 4 -13 25t13 26h47q173 0 326 16q10 -4 11.5 -24t-7.5 -27l-65 -12
q-53 -10 -129 -72q-36 -28 -71.5 -60.5t-73 -70t-42.5 -41.5q-18 -17 -21 -27t7 -22q50 -67 137 -164q146 -165 193 -209q36 -34 106 -45l29 -4q11 -7 9.5 -27t-13.5 -24q-88 6 -195 6q-125 0 -213 -6q-12 6 -13.5 25.5t9.5 25.5l37 6q51 7 51 21q0 17 -35 57l-219 254
q-26 29 -63 29q-27 0 -33 -11t-6 -59v-113q0 -113 12 -142t66 -36l49 -6q10 -8 8.5 -27t-12.5 -24q-102 6 -199 6q-106 0 -197 -6q-11 5 -12.5 24t10.5 27l45 6q55 7 66.5 35.5t11.5 142.5zM467 -119q57 0 106.5 -45.5t49.5 -124.5q0 -102 -69.5 -166.5t-182.5 -95.5
q-12 6 -16 32t3 32q51 15 92.5 52t41.5 91q0 13 -3.5 24.5t-11 20.5t-14 16.5t-17 13.5t-16.5 9.5t-14.5 7.5t-9.5 4q-33 16 -33 51q0 31 25.5 54.5t68.5 23.5z" />
    <glyph glyph-name="Lacute" unicode="&#x139;" horiz-adv-x="1132" 
d="M262 307v737q0 63 -0.5 94t-5.5 65.5t-12 48t-23 27t-37 17.5t-55 7l-51 4q-9 6 -7 26t11 25q173 -6 266 -6q99 0 252 6q9 -5 11 -25t-7 -26l-49 -4q-32 -3 -51.5 -7t-34.5 -17.5t-22 -27t-11.5 -48t-5 -65.5t-0.5 -94v-712q0 -102 8 -147.5t35 -73.5q14 -14 32 -23
t66.5 -17t124.5 -8q123 0 173 6t77 21q32 19 68.5 73t66.5 130q9 8 30.5 3t21.5 -15q0 -20 -33 -134.5t-53 -152.5q-156 6 -510 6h-189q-94 0 -266 -6q-9 5 -11 23.5t7 27.5l61 6q24 2 39.5 5t29.5 10.5t22 14t15 23t9.5 30.5t4.5 44.5t2.5 56t0.5 72.5zM653 1593l-342 -147
q-11 3 -17.5 17.5t-2.5 31.5l289 236q41 26 55 26q12 0 29 -12t28 -35q27 -52 15 -84q-14 -18 -54 -33z" />
    <glyph glyph-name="lacute" unicode="&#x13a;" horiz-adv-x="505" 
d="M332 1198v-969q0 -113 12 -142t66 -36l49 -6q10 -8 8.5 -27t-12.5 -24q-102 6 -199 6q-106 0 -197 -6q-11 5 -12.5 24t8.5 27l47 6q55 7 66.5 35.5t11.5 142.5v926q0 92 -9 117.5t-54 52.5l-21 12q-8 5 -8 21t8 20q143 45 221 86q15 0 21 -12q-6 -183 -6 -254zM481 1626
l-323 -139q-10 3 -16.5 17t-2.5 30l273 221q35 27 53 27q11 0 26.5 -12t26.5 -33q25 -51 12 -80q-9 -14 -49 -31z" />
    <glyph glyph-name="Lcommaaccent" unicode="&#x13b;" horiz-adv-x="1132" 
d="M262 307v737q0 63 -0.5 94t-5.5 65.5t-12 48t-23 27t-37 17.5t-55 7l-51 4q-9 6 -7 26t11 25q173 -6 266 -6q99 0 252 6q9 -5 11 -25t-7 -26l-49 -4q-32 -3 -51.5 -7t-34.5 -17.5t-22 -27t-11.5 -48t-5 -65.5t-0.5 -94v-712q0 -102 8 -147.5t35 -73.5q14 -14 32 -23
t66.5 -17t124.5 -8q123 0 173 6t77 21q32 19 68.5 73t66.5 130q9 8 30.5 3t21.5 -15q0 -20 -33 -134.5t-53 -152.5q-156 6 -510 6h-189q-94 0 -266 -6q-9 5 -11 23.5t7 27.5l61 6q24 2 39.5 5t29.5 10.5t22 14t15 23t9.5 30.5t4.5 44.5t2.5 56t0.5 72.5zM602 -119
q55 0 102.5 -45.5t47.5 -124.5q0 -102 -69 -166.5t-179 -95.5q-13 6 -15.5 32t5.5 32q52 16 96.5 53t44.5 90q0 15 -6 28.5t-14.5 22.5t-21 17.5t-21 13t-19.5 9t-12 5.5q-35 17 -35 51q0 31 26 54.5t70 23.5z" />
    <glyph glyph-name="lcommaaccent" unicode="&#x13c;" horiz-adv-x="505" 
d="M332 1198v-969q0 -113 12 -142t66 -36l49 -6q10 -8 8.5 -27t-12.5 -24q-102 6 -199 6q-106 0 -197 -6q-11 5 -12.5 24t8.5 27l47 6q55 7 66.5 35.5t11.5 142.5v926q0 92 -9 117.5t-54 52.5l-21 12q-8 5 -8 21t8 20q143 45 221 86q15 0 21 -12q-6 -183 -6 -254zM227 -109
q57 0 108.5 -45.5t51.5 -124.5q0 -101 -72 -166t-184 -96q-12 6 -15.5 32t3.5 32q51 15 92 52t41 91q0 13 -3.5 24.5t-11 20.5t-14 16.5t-17 13.5t-16.5 9.5t-14.5 7.5t-9.5 4q-33 16 -33 52q0 31 25 54t69 23z" />
    <glyph glyph-name="Lcaron" unicode="&#x13d;" horiz-adv-x="1132" 
d="M262 307v737q0 63 -0.5 94t-5.5 65.5t-12 48t-23 27t-37 17.5t-55 7l-51 4q-9 6 -7 26t11 25q173 -6 266 -6q99 0 252 6q9 -5 11 -25t-7 -26l-49 -4q-32 -3 -51.5 -7t-34.5 -17.5t-22 -27t-11.5 -48t-5 -65.5t-0.5 -94v-712q0 -102 8 -147.5t35 -73.5q14 -14 32 -23
t66.5 -17t124.5 -8q119 0 170 7.5t82 23.5q30 15 66.5 69t66.5 130q9 8 30.5 3t21.5 -15q0 -20 -33 -134.5t-53 -152.5q-156 6 -510 6h-189q-94 0 -266 -6q-9 5 -11 23.5t7 27.5l61 6q24 2 39.5 5t29.5 10.5t22 14t15 23t9.5 30.5t4.5 44.5t2.5 56t0.5 72.5zM817 1393
q65 0 109.5 -49.5t44.5 -116.5q0 -99 -62.5 -161.5t-167.5 -88.5q-11 8 -14.5 23.5t2.5 29.5q49 24 85 64.5t36 81.5q0 40 -24.5 65t-47.5 27q-51 4 -51 51q0 29 20.5 51.5t69.5 22.5z" />
    <glyph glyph-name="lcaron" unicode="&#x13e;" horiz-adv-x="505" 
d="M332 1198v-969q0 -113 12 -142t66 -36l49 -6q10 -8 8.5 -27t-12.5 -24q-102 6 -199 6q-106 0 -197 -6q-11 5 -12.5 24t8.5 27l47 6q55 7 66.5 35.5t11.5 142.5v926q0 92 -9 117.5t-54 52.5l-21 12q-8 5 -8 21t8 20q143 45 221 86q15 0 21 -12q-6 -183 -6 -254zM483 1464
q51 0 84 -49.5t33 -118.5q0 -86 -51 -147t-123 -92q-18 6 -22.5 22t6.5 25q22 15 35.5 26t33 30.5t29.5 41.5t10 45q0 39 -20.5 61t-48.5 27q-48 12 -48 58q0 27 19 49t63 22z" />
    <glyph glyph-name="Lslash" unicode="&#x141;" horiz-adv-x="1144" 
d="M274 307v275l-217 -148q-19 4 -27 23t-5 43l249 170v374q0 63 -0.5 94t-5.5 65.5t-12 48t-23 27t-37 17.5t-55 7l-51 4q-9 6 -7 26t11 25q173 -6 266 -6q99 0 252 6q9 -5 11 -25t-7 -26l-49 -4q-32 -3 -51.5 -7t-34.5 -17.5t-22 -27t-11.5 -48t-5 -65.5t-0.5 -94v-258
l281 187q19 -8 28 -27t3 -39l-312 -209v-366q0 -102 8 -147.5t35 -73.5q22 -22 68.5 -35t155.5 -13q123 0 172.5 6t76.5 21q32 20 69 74t67 129q9 8 30 3t21 -15q0 -20 -33 -134.5t-53 -152.5q-156 6 -510 6h-189q-94 0 -266 -6q-9 5 -11 23.5t7 27.5l62 6q24 2 39.5 5
t29.5 10.5t22 13.5t14.5 23t9.5 31t4.5 44.5t2 55.5t0.5 73z" />
    <glyph glyph-name="lslash" unicode="&#x142;" horiz-adv-x="534" 
d="M584 846l-236 -207v-410q0 -113 12 -142t66 -36l49 -6q10 -8 8.5 -27t-12.5 -24q-102 6 -199 6q-104 0 -196 -6q-11 5 -12.5 24t8.5 27l47 6q55 7 66.5 35.5t11.5 142.5v277l-170 -146q-19 4 -28.5 22t-4.5 38l203 176v559q0 92 -9.5 117.5t-54.5 52.5l-20 12q-7 5 -7 21
t7 20q143 45 221 86q14 0 20 -12q-6 -183 -6 -254v-469l199 174q20 -5 30.5 -20.5t6.5 -36.5z" />
    <glyph glyph-name="Nacute" unicode="&#x143;" horiz-adv-x="1603" 
d="M1364 838v-490q0 -305 6 -358q-8 -23 -39 -23q-39 55 -262 309l-475 541q-14 16 -113.5 133.5t-124.5 143.5h-4q-10 -31 -10 -133v-447q0 -360 37 -424q17 -32 104 -39l64 -6q9 -12 8 -27.5t-12 -23.5q-138 6 -240 6q-105 0 -213 -6q-10 7 -11.5 24.5t7.5 26.5l55 6
q76 10 90 41q27 69 27 422v592q0 51 -8 83t-37 64q-39 39 -127 50l-35 4q-9 9 -8.5 27t12.5 24q86 -6 232 -6q53 0 94 6q42 -107 350 -451l199 -223q260 -292 338 -371h4q8 10 8 86v439q0 360 -41 424q-19 28 -127 41l-35 4q-11 9 -9.5 28t13.5 23q141 -6 242 -6
q106 0 211 6q12 -7 12.5 -24.5t-8.5 -26.5l-29 -4q-100 -15 -114 -43q-6 -12 -10.5 -30t-7.5 -42.5t-5.5 -48t-4 -55.5t-2 -55t-1 -57t-0.5 -50.5v-47v-36.5zM1061 1593l-342 -147q-11 3 -18 18t-3 31l289 236q41 26 55 26q13 0 30 -12t28 -35q27 -53 12 -84
q-10 -17 -51 -33z" />
    <glyph glyph-name="nacute" unicode="&#x144;" horiz-adv-x="1075" 
d="M201 229v359q0 62 -8 81t-48 46l-18 12q-6 6 -5.5 19.5t7.5 17.5q40 14 108.5 46t96.5 54q16 0 22 -14q-4 -47 -4 -96q0 -9 6.5 -16t16.5 -7q170 105 287 105q120 0 179.5 -71.5t59.5 -182.5v-353q0 -113 12 -142t66 -36l45 -6q10 -8 8.5 -27t-12.5 -24q-92 6 -193 6
q-107 0 -190 -6q-11 5 -12.5 24t8.5 27l39 6q24 4 37.5 10t22.5 14.5t12.5 32t4.5 47t1 74.5v306q0 93 -47 147.5t-146 54.5q-57 0 -104 -20.5t-70 -50.5q-19 -25 -25 -50.5t-6 -72.5v-314q0 -80 4.5 -111t19.5 -46t54 -21l37 -6q10 -8 8.5 -27t-12.5 -24q-83 6 -187 6
q-106 0 -192 -6q-11 5 -12.5 24t8.5 27l43 6q55 7 66.5 35.5t11.5 142.5zM784 1210l-256 -266q-11 -2 -22 5.5t-12 17.5l176 333q26 50 49 50q24 0 63 -31q35 -28 35 -53q0 -23 -33 -56z" />
    <glyph glyph-name="Ncommaaccent" unicode="&#x145;" horiz-adv-x="1603" 
d="M1364 838v-490q0 -305 6 -358q-8 -23 -39 -23q-39 55 -262 309l-475 541q-14 16 -113.5 133.5t-124.5 143.5h-4q-10 -31 -10 -133v-447q0 -360 37 -424q17 -32 104 -39l64 -6q9 -12 8 -27.5t-12 -23.5q-138 6 -240 6q-105 0 -213 -6q-10 7 -11.5 24.5t7.5 26.5l55 6
q76 10 90 41q27 69 27 422v592q0 51 -8 83t-37 64q-39 39 -127 50l-35 4q-9 9 -8.5 27t12.5 24q86 -6 232 -6q53 0 94 6q42 -107 350 -451l199 -223q260 -292 338 -371h4q8 10 8 86v439q0 360 -41 424q-19 28 -127 41l-35 4q-11 9 -9.5 28t13.5 23q141 -6 242 -6
q106 0 211 6q12 -7 12.5 -24.5t-8.5 -26.5l-29 -4q-100 -15 -114 -43q-6 -12 -10.5 -30t-7.5 -42.5t-5.5 -48t-4 -55.5t-2 -55t-1 -57t-0.5 -50.5v-47v-36.5zM788 -119q55 0 104.5 -46t49.5 -128q0 -100 -66.5 -164t-177.5 -94q-13 6 -19.5 32t1.5 32q52 16 96.5 53t44.5 90
q0 15 -6 28.5t-14.5 22.5t-21 17.5t-21 13t-19.5 9t-12 5.5q-35 17 -35 51q0 31 26 54.5t70 23.5z" />
    <glyph glyph-name="ncommaaccent" unicode="&#x146;" horiz-adv-x="1075" 
d="M201 229v359q0 62 -8 81t-48 46l-18 12q-6 6 -5.5 19.5t7.5 17.5q40 14 108.5 46t96.5 54q16 0 22 -14q-4 -47 -4 -96q0 -9 6.5 -16t16.5 -7q170 105 287 105q120 0 179.5 -71.5t59.5 -182.5v-353q0 -113 12 -142t66 -36l45 -6q10 -8 8.5 -27t-12.5 -24q-92 6 -193 6
q-107 0 -190 -6q-11 5 -12.5 24t8.5 27l39 6q24 4 37.5 10t22.5 14.5t12.5 32t4.5 47t1 74.5v306q0 93 -47 147.5t-146 54.5q-57 0 -104 -20.5t-70 -50.5q-19 -25 -25 -50.5t-6 -72.5v-314q0 -80 4.5 -111t19.5 -46t54 -21l37 -6q10 -8 8.5 -27t-12.5 -24q-83 6 -187 6
q-106 0 -192 -6q-11 5 -12.5 24t8.5 27l43 6q55 7 66.5 35.5t11.5 142.5zM514 -119q51 0 94 -45t43 -125q0 -102 -62.5 -166.5t-162.5 -95.5q-11 6 -14 32t4 32q48 16 88.5 52.5t40.5 90.5q0 18 -7 33t-20 26t-22.5 17.5t-23.5 13.5l-13 6q-31 16 -31 51q0 31 23.5 54.5
t62.5 23.5z" />
    <glyph glyph-name="Ncaron" unicode="&#x147;" horiz-adv-x="1603" 
d="M1364 838v-490q0 -305 6 -358q-8 -23 -39 -23q-39 55 -262 309l-475 541q-14 16 -113.5 133.5t-124.5 143.5h-4q-10 -31 -10 -133v-447q0 -360 37 -424q17 -32 104 -39l64 -6q9 -12 8 -27.5t-12 -23.5q-138 6 -240 6q-105 0 -213 -6q-10 7 -11.5 24.5t7.5 26.5l55 6
q76 10 90 41q27 69 27 422v592q0 51 -8 83t-37 64q-39 39 -127 50l-35 4q-9 9 -8.5 27t12.5 24q86 -6 232 -6q53 0 94 6q42 -107 350 -451l199 -223q260 -292 338 -371h4q8 10 8 86v439q0 360 -41 424q-19 28 -127 41l-35 4q-11 9 -9.5 28t13.5 23q141 -6 242 -6
q106 0 211 6q12 -7 12.5 -24.5t-8.5 -26.5l-29 -4q-100 -15 -114 -43q-6 -12 -10.5 -30t-7.5 -42.5t-5.5 -48t-4 -55.5t-2 -55t-1 -57t-0.5 -50.5v-47v-36.5zM762 1460l-254 232q0 14 9.5 27.5t21.5 13.5l237 -121q17 -9 27.5 -9t30.5 9l239 121q10 -1 16.5 -14t6.5 -27
l-250 -232q-40 -38 -84 0z" />
    <glyph glyph-name="ncaron" unicode="&#x148;" horiz-adv-x="1075" 
d="M201 229v359q0 62 -8 81t-48 46l-18 12q-6 6 -5.5 19.5t7.5 17.5q40 14 108.5 46t96.5 54q16 0 22 -14q-4 -47 -4 -96q0 -9 6.5 -16t16.5 -7q170 105 287 105q120 0 179.5 -71.5t59.5 -182.5v-353q0 -113 12 -142t66 -36l45 -6q10 -8 8.5 -27t-12.5 -24q-92 6 -193 6
q-107 0 -190 -6q-11 5 -12.5 24t8.5 27l39 6q24 4 37.5 10t22.5 14.5t12.5 32t4.5 47t1 74.5v306q0 93 -47 147.5t-146 54.5q-57 0 -104 -20.5t-70 -50.5q-19 -25 -25 -50.5t-6 -72.5v-314q0 -80 4.5 -111t19.5 -46t54 -21l37 -6q10 -8 8.5 -27t-12.5 -24q-83 6 -187 6
q-106 0 -192 -6q-11 5 -12.5 24t8.5 27l43 6q55 7 66.5 35.5t11.5 142.5zM365 1346l153 -191q19 -22 25 -22.5t30 22.5l154 191q11 2 23.5 -5.5t13.5 -21.5l-184 -346q-15 -29 -34 -28.5t-34 28.5l-188 346q1 13 15.5 20t25.5 7z" />
    <glyph glyph-name="Omacron" unicode="&#x14c;" horiz-adv-x="1628" 
d="M823 -33q-166 0 -305 56.5t-231 152.5t-142.5 221.5t-50.5 264.5q0 152 55 285.5t151 229.5t231.5 151.5t291.5 55.5q138 0 255 -38.5t200 -105t141.5 -156t86.5 -191.5t28 -211q0 -152 -56 -286t-151 -227.5t-226.5 -147.5t-277.5 -54zM850 31q95 0 179 36t152 105.5
t108 184.5t40 261q0 105 -18.5 203t-60 190t-102.5 160t-154 109t-206 41q-67 0 -132.5 -18t-131 -62.5t-115 -110t-80 -170t-30.5 -233.5q0 -95 18 -189t60.5 -186.5t104 -163t157 -114t211.5 -43.5zM1061 1509h-473q-17 20 -17 58.5t17 58.5h473q19 -20 19 -58.5
t-19 -58.5z" />
    <glyph glyph-name="omacron" unicode="&#x14d;" horiz-adv-x="995" 
d="M508 836q175 0 295.5 -119t120.5 -305q0 -193 -120.5 -317t-311.5 -124q-180 0 -300 116.5t-120 305.5q0 191 126 317t310 126zM748 379q0 55 -8.5 108.5t-29 106t-50 92t-75.5 64t-102 24.5q-104 0 -169.5 -94.5t-65.5 -259.5q0 -98 27.5 -183.5t89 -144.5t147.5 -59
q64 0 112 31t74 83.5t38 110t12 121.5zM723 1032h-438q-17 22 -17 62.5t17 62.5h438q13 -22 13 -62.5t-13 -62.5z" />
    <glyph glyph-name="Ohungarumlaut" unicode="&#x150;" horiz-adv-x="1628" 
d="M823 -33q-166 0 -305 56.5t-231 152.5t-142.5 221.5t-50.5 264.5q0 152 55 285.5t151 229.5t231.5 151.5t291.5 55.5q138 0 255 -38.5t200 -105t141.5 -156t86.5 -191.5t28 -211q0 -152 -56 -286t-151 -227.5t-226.5 -147.5t-277.5 -54zM850 31q95 0 179 36t152 105.5
t108 184.5t40 261q0 105 -18.5 203t-60 190t-102.5 160t-154 109t-206 41q-67 0 -132.5 -18t-131 -62.5t-115 -110t-80 -170t-30.5 -233.5q0 -95 18 -189t60.5 -186.5t104 -163t157 -114t211.5 -43.5zM1090 1763q19 0 59 -28q26 -19 34.5 -40.5t-3.5 -31.5q-4 -5 -11 -12.5
t-18.5 -18t-17.5 -16.5l-179 -170q-17 3 -30 14t-9 25l115 233q14 26 26 35.5t34 9.5zM766 1763q22 0 61 -30q42 -36 27 -66q-10 -21 -45 -51l-178 -170q-17 3 -30 14t-9 25l115 233q14 27 25.5 36t33.5 9z" />
    <glyph glyph-name="ohungarumlaut" unicode="&#x151;" horiz-adv-x="995" 
d="M508 836q175 0 295.5 -119t120.5 -305q0 -193 -120.5 -317t-311.5 -124q-180 0 -300 116.5t-120 305.5q0 191 126 317t310 126zM748 379q0 55 -8.5 108.5t-29 106t-50 92t-75.5 64t-102 24.5q-104 0 -169.5 -94.5t-65.5 -259.5q0 -98 27.5 -183.5t89 -144.5t147.5 -59
q64 0 112 31t74 83.5t38 110t12 121.5zM528 1217l-188 -275q-12 -2 -23.5 5t-11.5 18l113 333q19 43 35 45q15 4 65 -22q30 -20 33 -41q4 -25 -23 -63zM799 1217l-189 -275q-12 -2 -24 5t-11 18l113 333q18 42 35 48q13 2 65 -25q30 -13 33 -39q3 -24 -22 -65z" />
    <glyph glyph-name="OE" unicode="&#x152;" horiz-adv-x="2072" 
d="M1268 1352h346q249 0 276 6q9 -33 31 -271q-6 -11 -24 -13t-27 7q-31 95 -50 125q-36 55 -106 72q-43 10 -198 10h-148q-44 0 -51.5 -11t-7.5 -71v-411q0 -40 10 -48t55 -8h119q128 0 174 11q20 6 30 20.5t19 52.5l19 82q7 9 26 8.5t25 -10.5q0 -20 -4 -91.5t-4 -113.5
t4 -110t4 -88q-6 -10 -25 -10.5t-26 8.5l-21 82q-14 63 -63 77q-37 11 -158 11h-119q-45 0 -55 -8.5t-10 -47.5v-288q0 -91 8 -139.5t31 -73.5q21 -23 72 -35.5t175 -12.5q120 0 173.5 6t86.5 25q63 32 146 199q10 8 27.5 3.5t23.5 -17.5q-10 -55 -40.5 -149t-51.5 -136
q-276 6 -549 6h-125q-74 0 -206 -6t-197 -6q-357 0 -573 186t-216 492q0 199 99.5 356.5t284 246.5t423.5 89q62 0 184.5 -3t182.5 -3zM1141 252v870q0 128 -54 148q-73 24 -196 24q-128 0 -230 -33t-169 -89.5t-111 -136.5t-63 -169t-19 -192q0 -50 6.5 -101.5t24.5 -114
t46 -118.5t75.5 -110t108.5 -93t148.5 -62.5t192.5 -23.5q107 0 178 31q37 21 49.5 58t12.5 112z" />
    <glyph glyph-name="oe" unicode="&#x153;" horiz-adv-x="1492" 
d="M248 418q0 -92 28 -178t89.5 -146.5t142.5 -60.5q66 0 114.5 31.5t75 84t38.5 110t12 120.5q0 69 -14.5 135t-44.5 126t-84 97t-124 37q-102 0 -167.5 -99.5t-65.5 -256.5zM1284 524h-338q-36 0 -45.5 -15t-9.5 -63q0 -70 22 -134.5t63 -116t106.5 -82.5t144.5 -31
q71 0 111 21t83 79q12 4 24.5 -2.5t12.5 -17.5q-43 -99 -128 -145t-191 -46q-99 0 -184.5 45.5t-133.5 122.5q-54 -82 -142.5 -125t-189.5 -43q-182 0 -299.5 116t-117.5 306q0 192 125 317.5t311 125.5q99 0 184.5 -45.5t136.5 -131.5q53 82 141.5 129.5t182.5 47.5
q138 0 220.5 -73t82.5 -171q0 -35 -6 -47q-10 -21 -166 -21zM977 586h129q164 0 182 18q12 12 12 41q0 48 -38.5 88.5t-118.5 40.5q-84 0 -153.5 -55t-69.5 -117q0 -16 57 -16z" />
    <glyph glyph-name="Racute" unicode="&#x154;" horiz-adv-x="1320" 
d="M262 307v735q0 151 -14.5 192t-75.5 48l-66 8q-11 7 -10 26t13 25q196 17 456 17q228 0 342 -62q170 -88 170 -286q0 -69 -25 -129t-65.5 -101t-81.5 -68t-84 -44q-12 -15 10 -50q138 -222 226.5 -342t185.5 -202q59 -52 141 -58q8 -3 8.5 -12.5t-6.5 -15.5
q-33 -11 -90 -11q-135 0 -226.5 54t-197.5 205q-27 38 -98 150.5t-102 158.5q-24 35 -55.5 50t-90.5 15q-69 0 -82.5 -6.5t-13.5 -38.5v-258q0 -62 0.5 -93t5 -64.5t11 -46t22 -26t34 -18t50.5 -8.5l43 -6q9 -8 7 -27t-11 -24q-138 6 -244 6q-112 0 -256 -6q-9 5 -11 22.5
t7 28.5l51 6q32 4 50.5 8t34 17.5t22 26.5t11 46.5t5 64.5t0.5 93zM430 1229v-479q0 -60 6 -68q10 -10 142 -10q141 0 210 53q103 81 103 254q0 132 -84 223.5t-244 91.5q-66 0 -92 -5t-33.5 -17t-7.5 -43zM885 1593l-342 -147q-11 3 -18 18t-3 31l289 236q41 26 55 26
q13 0 30 -12t28 -35q26 -51 14 -84q-14 -18 -53 -33z" />
    <glyph glyph-name="racute" unicode="&#x155;" horiz-adv-x="679" 
d="M201 229v359q0 62 -8 81t-48 46l-18 12q-6 6 -5.5 19.5t7.5 17.5q35 12 101.5 44t105.5 56q16 -3 16 -14v-119q0 -15 6 -18q49 40 76.5 60.5t71 41.5t78.5 21q39 0 65.5 -23t26.5 -59q0 -46 -28.5 -70.5t-59.5 -24.5q-19 0 -45 15q-51 33 -90 33q-45 0 -74 -41
q-27 -39 -27 -158v-279q0 -114 12.5 -144t69.5 -34l74 -6q10 -8 8.5 -27t-12.5 -24q-144 6 -228 6q-108 0 -188 -6q-11 5 -12.5 24t8.5 27l39 6q24 4 37.5 10t22.5 14.5t12.5 32t4.5 47t1 74.5zM584 1221l-256 -267q-11 -2 -22.5 5.5t-12.5 17.5l176 334q26 49 49 49
q25 0 64 -31q34 -27 34 -53q0 -23 -32 -55z" />
    <glyph glyph-name="Rcommaaccent" unicode="&#x156;" horiz-adv-x="1320" 
d="M262 307v735q0 151 -14.5 192t-75.5 48l-66 8q-11 7 -10 26t13 25q196 17 456 17q228 0 342 -62q170 -88 170 -286q0 -69 -25 -129t-65.5 -101t-81.5 -68t-84 -44q-12 -15 10 -50q138 -222 226.5 -342t185.5 -202q59 -52 141 -58q8 -3 8.5 -12.5t-6.5 -15.5
q-33 -11 -90 -11q-135 0 -226.5 54t-197.5 205q-27 38 -98 150.5t-102 158.5q-24 35 -55.5 50t-90.5 15q-69 0 -82.5 -6.5t-13.5 -38.5v-258q0 -62 0.5 -93t5 -64.5t11 -46t22 -26t34 -18t50.5 -8.5l43 -6q9 -8 7 -27t-11 -24q-138 6 -244 6q-112 0 -256 -6q-9 5 -11 22.5
t7 28.5l51 6q32 4 50.5 8t34 17.5t22 26.5t11 46.5t5 64.5t0.5 93zM430 1229v-479q0 -60 6 -68q10 -10 142 -10q141 0 210 53q103 81 103 254q0 132 -84 223.5t-244 91.5q-66 0 -92 -5t-33.5 -17t-7.5 -43zM688 -78q56 0 104 -45t48 -125q0 -102 -69 -166.5t-179 -95.5
q-12 6 -15.5 32t3.5 32q53 15 98 52t45 91q0 15 -6.5 28.5t-15 22.5t-21 17.5t-21.5 13t-20 9t-12 5.5q-33 16 -33 51q0 31 25.5 54.5t68.5 23.5z" />
    <glyph glyph-name="rcommaaccent" unicode="&#x157;" horiz-adv-x="679" 
d="M201 229v359q0 62 -8 81t-48 46l-18 12q-6 6 -5.5 19.5t7.5 17.5q35 12 101.5 44t105.5 56q16 -3 16 -14v-119q0 -15 6 -18q49 40 76.5 60.5t71 41.5t78.5 21q39 0 65.5 -23t26.5 -59q0 -46 -28.5 -70.5t-59.5 -24.5q-19 0 -45 15q-51 33 -90 33q-45 0 -74 -41
q-27 -39 -27 -158v-279q0 -114 12.5 -144t69.5 -34l74 -6q10 -8 8.5 -27t-12.5 -24q-144 6 -228 6q-108 0 -188 -6q-11 5 -12.5 24t8.5 27l39 6q24 4 37.5 10t22.5 14.5t12.5 32t4.5 47t1 74.5zM264 -119q52 0 99 -45.5t47 -124.5q0 -102 -64 -167t-170 -95q-11 6 -14 32
t4 32q46 15 83.5 52t37.5 91q0 15 -5 28.5t-11.5 22.5t-17.5 18t-17 12.5t-16 8.5l-11 6q-31 16 -31 51q0 31 23.5 54.5t62.5 23.5z" />
    <glyph glyph-name="Rcaron" unicode="&#x158;" horiz-adv-x="1320" 
d="M262 307v735q0 151 -14.5 192t-75.5 48l-66 8q-11 7 -10 26t13 25q196 17 456 17q228 0 342 -62q170 -88 170 -286q0 -69 -25 -129t-65.5 -101t-81.5 -68t-84 -44q-12 -15 10 -50q138 -222 226.5 -342t185.5 -202q59 -52 141 -58q8 -3 8.5 -12.5t-6.5 -15.5
q-33 -11 -90 -11q-135 0 -226.5 54t-197.5 205q-27 38 -98 150.5t-102 158.5q-24 35 -55.5 50t-90.5 15q-69 0 -82.5 -6.5t-13.5 -38.5v-258q0 -62 0.5 -93t5 -64.5t11 -46t22 -26t34 -18t50.5 -8.5l43 -6q9 -8 7 -27t-11 -24q-138 6 -244 6q-112 0 -256 -6q-9 5 -11 22.5
t7 28.5l51 6q32 4 50.5 8t34 17.5t22 26.5t11 46.5t5 64.5t0.5 93zM430 1229v-479q0 -60 6 -68q10 -10 142 -10q141 0 210 53q103 81 103 254q0 132 -84 223.5t-244 91.5q-66 0 -92 -5t-33.5 -17t-7.5 -43zM549 1460l-254 232q0 14 9.5 27.5t21.5 13.5l233 -117
q20 -12 31.5 -12t34.5 12l235 117q10 -1 16.5 -14t6.5 -27l-250 -232q-40 -38 -84 0z" />
    <glyph glyph-name="rcaron" unicode="&#x159;" horiz-adv-x="679" 
d="M201 229v359q0 62 -8 81t-48 46l-18 12q-6 6 -5.5 19.5t7.5 17.5q35 12 101.5 44t105.5 56q16 -3 16 -14v-119q0 -15 6 -18q49 40 76.5 60.5t71 41.5t78.5 21q39 0 65.5 -23t26.5 -59q0 -46 -28.5 -70.5t-59.5 -24.5q-19 0 -45 15q-51 33 -90 33q-45 0 -74 -41
q-27 -39 -27 -158v-279q0 -114 12.5 -144t69.5 -34l74 -6q10 -8 8.5 -27t-12.5 -24q-144 6 -228 6q-108 0 -188 -6q-11 5 -12.5 24t8.5 27l39 6q24 4 37.5 10t22.5 14.5t12.5 32t4.5 47t1 74.5zM190 1376l154 -190q15 -20 27.5 -19.5t27.5 19.5l154 190q11 2 23.5 -5
t13.5 -21l-184 -363q-15 -30 -34 -30t-34 30l-188 363q1 13 15 19.5t25 6.5z" />
    <glyph glyph-name="Sacute" unicode="&#x15a;" horiz-adv-x="1001" 
d="M895 346q0 -170 -119 -274.5t-317 -104.5q-191 0 -320 76q-18 33 -35 123t-20 164q8 11 25.5 13t23.5 -7q11 -38 25.5 -72t43.5 -79.5t65 -77t93 -54t125 -22.5q123 0 189.5 68t66.5 167q0 39 -5.5 70.5t-22 69.5t-51.5 75.5t-89 71.5l-194 127q-221 147 -221 352
q0 152 112 252t305 100q93 0 191 -26q41 -12 72 -12q14 -38 25 -112.5t11 -137.5q-6 -9 -24.5 -12t-26.5 6q-10 35 -20.5 62t-32.5 61t-50 55.5t-73 37t-102 15.5q-71 0 -122 -21.5t-76 -57.5t-35.5 -72t-10.5 -76q0 -80 51.5 -144t122.5 -108l164 -103q256 -159 256 -393z
M793 1593l-342 -147q-11 3 -18 18t-3 31l289 236q41 26 55 26q12 0 29 -12t28 -35q27 -52 15 -84q-14 -18 -53 -33z" />
    <glyph glyph-name="sacute" unicode="&#x15b;" horiz-adv-x="661" 
d="M381 836q60 0 112.5 -12t67.5 -25q33 -83 33 -166q-6 -11 -23.5 -13t-25.5 7q-27 70 -73 109.5t-107 39.5q-60 0 -96 -34.5t-36 -90.5q0 -24 11 -47t22 -36.5t40 -34t39.5 -26.5l45.5 -26q48 -27 80 -49.5t64.5 -56t48.5 -76t16 -94.5q0 -111 -86.5 -172.5t-208.5 -61.5
q-142 0 -219 62q-12 30 -20 93.5t-5 113.5q8 9 24 10t24 -8q65 -211 217 -211q59 0 98 34t39 97q0 34 -13 62.5t-39 52t-48 38.5t-58 35q-100 57 -151.5 115t-51.5 137q0 109 79 171.5t200 62.5zM582 1206l-256 -266q-11 -2 -22.5 5.5t-12.5 17.5l176 333q26 50 49 50
q25 0 64 -31q34 -27 34 -53q0 -24 -32 -56z" />
    <glyph glyph-name="Scedilla" unicode="&#x15e;" horiz-adv-x="1001" 
d="M362 -209l109 178q-4 -2 -12 -2q-191 0 -320 76q-18 33 -35 123t-20 164q8 11 25.5 13t23.5 -7q11 -38 25.5 -72t43.5 -79.5t65 -77t93 -54t125 -22.5q123 0 189.5 68t66.5 167q0 39 -5.5 70.5t-22 69.5t-51.5 75.5t-89 71.5l-194 127q-221 147 -221 352q0 152 112 252
t305 100q93 0 191 -26q41 -12 72 -12q14 -38 25 -112.5t11 -137.5q-6 -9 -24.5 -12t-26.5 6q-10 35 -20.5 62t-32.5 61t-50 55.5t-73 37t-102 15.5q-71 0 -122 -21.5t-76 -57.5t-35.5 -72t-10.5 -76q0 -80 51.5 -144t122.5 -108l164 -103q256 -159 256 -393
q0 -150 -94 -250.5t-256 -120.5l-60 -94q-14 -24 11 -39q94 -68 94 -141q0 -70 -60.5 -119t-136.5 -49q-52 0 -81 19t-29 49q0 17 13.5 33t33.5 16t54 -28t46 -28q20 0 35.5 14.5t15.5 45.5q0 36 -33.5 71t-85.5 56v10z" />
    <glyph glyph-name="Scedilla" unicode="&#xf6c1;" horiz-adv-x="1001" 
d="M362 -209l109 178q-4 -2 -12 -2q-191 0 -320 76q-18 33 -35 123t-20 164q8 11 25.5 13t23.5 -7q11 -38 25.5 -72t43.5 -79.5t65 -77t93 -54t125 -22.5q123 0 189.5 68t66.5 167q0 39 -5.5 70.5t-22 69.5t-51.5 75.5t-89 71.5l-194 127q-221 147 -221 352q0 152 112 252
t305 100q93 0 191 -26q41 -12 72 -12q14 -38 25 -112.5t11 -137.5q-6 -9 -24.5 -12t-26.5 6q-10 35 -20.5 62t-32.5 61t-50 55.5t-73 37t-102 15.5q-71 0 -122 -21.5t-76 -57.5t-35.5 -72t-10.5 -76q0 -80 51.5 -144t122.5 -108l164 -103q256 -159 256 -393
q0 -150 -94 -250.5t-256 -120.5l-60 -94q-14 -24 11 -39q94 -68 94 -141q0 -70 -60.5 -119t-136.5 -49q-52 0 -81 19t-29 49q0 17 13.5 33t33.5 16t54 -28t46 -28q20 0 35.5 14.5t15.5 45.5q0 36 -33.5 71t-85.5 56v10z" />
    <glyph glyph-name="scedilla" unicode="&#x15f;" horiz-adv-x="661" 
d="M217 -178l94 149h-6q-142 0 -219 62q-12 30 -20 93.5t-5 113.5q8 9 24 10t24 -8q65 -211 217 -211q59 0 98 34t39 97q0 34 -13 62.5t-39 52t-48 38.5t-58 35q-100 57 -151.5 115t-51.5 137q0 109 79 171.5t200 62.5q60 0 112.5 -12t67.5 -25q33 -83 33 -166
q-6 -11 -23.5 -13t-25.5 7q-27 70 -73 109.5t-107 39.5q-60 0 -96 -34.5t-36 -90.5q0 -24 11 -47t22 -36.5t40 -34t39.5 -26.5l45.5 -26q48 -27 80 -49.5t64.5 -56t48.5 -76t16 -94.5q0 -92 -62 -150.5t-159 -74.5l-45 -72q-14 -25 16 -43q84 -57 84 -129
q0 -67 -57.5 -113.5t-130.5 -46.5q-50 0 -77.5 17.5t-27.5 46.5q0 17 12.5 32t32.5 15q19 0 51.5 -27t43.5 -27q20 0 34.5 14t14.5 44q0 34 -32.5 68t-80.5 53v10z" />
    <glyph glyph-name="scedilla" unicode="&#xf6c2;" horiz-adv-x="661" 
d="M217 -178l94 149h-6q-142 0 -219 62q-12 30 -20 93.5t-5 113.5q8 9 24 10t24 -8q65 -211 217 -211q59 0 98 34t39 97q0 34 -13 62.5t-39 52t-48 38.5t-58 35q-100 57 -151.5 115t-51.5 137q0 109 79 171.5t200 62.5q60 0 112.5 -12t67.5 -25q33 -83 33 -166
q-6 -11 -23.5 -13t-25.5 7q-27 70 -73 109.5t-107 39.5q-60 0 -96 -34.5t-36 -90.5q0 -24 11 -47t22 -36.5t40 -34t39.5 -26.5l45.5 -26q48 -27 80 -49.5t64.5 -56t48.5 -76t16 -94.5q0 -92 -62 -150.5t-159 -74.5l-45 -72q-14 -25 16 -43q84 -57 84 -129
q0 -67 -57.5 -113.5t-130.5 -46.5q-50 0 -77.5 17.5t-27.5 46.5q0 17 12.5 32t32.5 15q19 0 51.5 -27t43.5 -27q20 0 34.5 14t14.5 44q0 34 -32.5 68t-80.5 53v10z" />
    <glyph glyph-name="Scaron" unicode="&#x160;" horiz-adv-x="1001" 
d="M895 346q0 -170 -119 -274.5t-317 -104.5q-191 0 -320 76q-18 33 -35 123t-20 164q8 11 25.5 13t23.5 -7q11 -38 25.5 -72t43.5 -79.5t65 -77t93 -54t125 -22.5q123 0 189.5 68t66.5 167q0 39 -5.5 70.5t-22 69.5t-51.5 75.5t-89 71.5l-194 127q-221 147 -221 352
q0 152 112 252t305 100q93 0 191 -26q41 -12 72 -12q14 -38 25 -112.5t11 -137.5q-6 -9 -24.5 -12t-26.5 6q-10 35 -20.5 62t-32.5 61t-50 55.5t-73 37t-102 15.5q-71 0 -122 -21.5t-76 -57.5t-35.5 -72t-10.5 -76q0 -80 51.5 -144t122.5 -108l164 -103q256 -159 256 -393z
M487 1477l-251 231q0 14 8.5 27.5t19.5 13.5l234 -119q23 -11 32 -11.5t33 11.5l238 119q9 -1 15.5 -14t6.5 -27l-250 -231q-41 -38 -86 0z" />
    <glyph glyph-name="scaron" unicode="&#x161;" horiz-adv-x="661" 
d="M381 836q60 0 112.5 -12t67.5 -25q33 -83 33 -166q-6 -11 -23.5 -13t-25.5 7q-27 70 -73 109.5t-107 39.5q-60 0 -96 -34.5t-36 -90.5q0 -24 11 -47t22 -36.5t40 -34t39.5 -26.5l45.5 -26q48 -27 80 -49.5t64.5 -56t48.5 -76t16 -94.5q0 -111 -86.5 -172.5t-208.5 -61.5
q-142 0 -219 62q-12 30 -20 93.5t-5 113.5q8 9 24 10t24 -8q65 -211 217 -211q59 0 98 34t39 97q0 34 -13 62.5t-39 52t-48 38.5t-58 35q-100 57 -151.5 115t-51.5 137q0 109 79 171.5t200 62.5zM180 1368l154 -190q15 -20 27.5 -19.5t27.5 19.5l154 190q11 2 23.5 -5.5
t13.5 -21.5l-185 -362q-15 -30 -33.5 -30t-33.5 30l-189 362q1 13 15.5 20t25.5 7z" />
    <glyph glyph-name="Tcommaaccent" unicode="&#x162;" horiz-adv-x="1351" 
d="M754 1219v-912q0 -63 0.5 -94t5 -65t11 -47t21.5 -26t34 -17t51 -7l65 -6q9 -6 7 -26t-11 -25q-176 6 -268 6q-88 0 -285 -6q-10 5 -10.5 24t10.5 27l74 6q37 3 58.5 10.5t36.5 21t21 45.5t8.5 70t2.5 109v916q0 47 -8 56t-54 9h-112q-197 0 -252 -51q-23 -21 -41 -47
t-27 -43t-24 -51q-12 -9 -30 -3.5t-24 17.5q49 138 78 305q5 3 19.5 3.5t19.5 -3.5q3 -18 13.5 -30.5t22 -19t36 -9.5t40.5 -3.5t50 -0.5h6.5h5.5h830q85 0 110.5 9t48.5 48q7 3 20.5 1.5t16.5 -7.5q-17 -61 -26.5 -162t-4.5 -149q-6 -12 -26 -13t-27 8q-14 123 -51 150
q-68 51 -238 51h-145q-45 0 -52 -8.5t-7 -60.5zM649 -119q55 0 102.5 -45.5t47.5 -124.5q0 -102 -69 -166.5t-179 -95.5q-13 6 -15.5 32t5.5 32q52 16 96.5 53t44.5 90q0 15 -6 28.5t-14.5 22.5t-21 17.5t-21 13t-19.5 9t-12 5.5q-35 17 -35 51q0 31 26 54.5t70 23.5z" />
    <glyph glyph-name="Tcommaaccent" unicode="&#x21a;" horiz-adv-x="1351" 
d="M754 1219v-912q0 -63 0.5 -94t5 -65t11 -47t21.5 -26t34 -17t51 -7l65 -6q9 -6 7 -26t-11 -25q-176 6 -268 6q-88 0 -285 -6q-10 5 -10.5 24t10.5 27l74 6q37 3 58.5 10.5t36.5 21t21 45.5t8.5 70t2.5 109v916q0 47 -8 56t-54 9h-112q-197 0 -252 -51q-23 -21 -41 -47
t-27 -43t-24 -51q-12 -9 -30 -3.5t-24 17.5q49 138 78 305q5 3 19.5 3.5t19.5 -3.5q3 -18 13.5 -30.5t22 -19t36 -9.5t40.5 -3.5t50 -0.5h6.5h5.5h830q85 0 110.5 9t48.5 48q7 3 20.5 1.5t16.5 -7.5q-17 -61 -26.5 -162t-4.5 -149q-6 -12 -26 -13t-27 8q-14 123 -51 150
q-68 51 -238 51h-145q-45 0 -52 -8.5t-7 -60.5zM649 -119q55 0 102.5 -45.5t47.5 -124.5q0 -102 -69 -166.5t-179 -95.5q-13 6 -15.5 32t5.5 32q52 16 96.5 53t44.5 90q0 15 -6 28.5t-14.5 22.5t-21 17.5t-21 13t-19.5 9t-12 5.5q-35 17 -35 51q0 31 26 54.5t70 23.5z" />
    <glyph glyph-name="tcommaaccent" unicode="&#x163;" horiz-adv-x="628" 
d="M600 721h-231q-26 0 -31.5 -8t-5.5 -41v-383q0 -41 2.5 -70t11.5 -61t24.5 -51.5t43.5 -32.5t67 -13q27 0 56 11q8 3 19.5 10t20.5 12.5t11 5.5q11 0 17 -12t3 -22q-33 -39 -88.5 -67t-126.5 -28q-64 0 -107.5 16.5t-65.5 49t-31 69.5t-9 87v469q0 42 -6 50.5t-37 8.5
h-57q-9 6 -10.5 20t4.5 23q92 28 131 63q49 46 86 121q7 4 22.5 1.5t20.5 -11.5v-92q0 -28 5.5 -33.5t31.5 -5.5h227q18 -14 17 -45t-15 -41zM332 -119q52 0 98.5 -47t46.5 -133q0 -94 -66 -157.5t-167 -94.5q-11 6 -14.5 32t3.5 32q46 15 83.5 52t37.5 91q0 15 -5 28.5
t-11.5 22.5t-17.5 18t-17 12.5t-17 8.5l-10 6q-30 16 -30 51q0 31 23.5 54.5t62.5 23.5z" />
    <glyph glyph-name="tcommaaccent" unicode="&#x21b;" horiz-adv-x="628" 
d="M600 721h-231q-26 0 -31.5 -8t-5.5 -41v-383q0 -41 2.5 -70t11.5 -61t24.5 -51.5t43.5 -32.5t67 -13q27 0 56 11q8 3 19.5 10t20.5 12.5t11 5.5q11 0 17 -12t3 -22q-33 -39 -88.5 -67t-126.5 -28q-64 0 -107.5 16.5t-65.5 49t-31 69.5t-9 87v469q0 42 -6 50.5t-37 8.5
h-57q-9 6 -10.5 20t4.5 23q92 28 131 63q49 46 86 121q7 4 22.5 1.5t20.5 -11.5v-92q0 -28 5.5 -33.5t31.5 -5.5h227q18 -14 17 -45t-15 -41zM332 -119q52 0 98.5 -47t46.5 -133q0 -94 -66 -157.5t-167 -94.5q-11 6 -14.5 32t3.5 32q46 15 83.5 52t37.5 91q0 15 -5 28.5
t-11.5 22.5t-17.5 18t-17 12.5t-17 8.5l-10 6q-30 16 -30 51q0 31 23.5 54.5t62.5 23.5z" />
    <glyph glyph-name="Tcaron" unicode="&#x164;" horiz-adv-x="1351" 
d="M754 1219v-912q0 -63 0.5 -94t5 -65t11 -47t21.5 -26t34 -17t51 -7l65 -6q9 -6 7 -26t-11 -25q-176 6 -268 6q-88 0 -285 -6q-10 5 -10.5 24t10.5 27l74 6q37 3 58.5 10.5t36.5 21t21 45.5t8.5 70t2.5 109v916q0 47 -8 56t-54 9h-112q-197 0 -252 -51q-23 -21 -41 -47
t-27 -43t-24 -51q-12 -9 -30 -3.5t-24 17.5q49 138 78 305q5 3 19.5 3.5t19.5 -3.5q3 -18 13.5 -30.5t22 -19t36 -9.5t40.5 -3.5t50 -0.5h6.5h5.5h830q85 0 110.5 9t48.5 48q7 3 20.5 1.5t16.5 -7.5q-17 -61 -26.5 -162t-4.5 -149q-6 -12 -26 -13t-27 8q-14 123 -51 150
q-68 51 -238 51h-145q-45 0 -52 -8.5t-7 -60.5zM637 1460l-252 232q0 14 9 27.5t20 13.5l231 -119q23 -10 33.5 -9.5t34.5 11.5l237 117q9 -1 16 -14t7 -27l-250 -232q-41 -38 -86 0z" />
    <glyph glyph-name="tcaron" unicode="&#x165;" horiz-adv-x="628" 
d="M600 721h-231q-26 0 -31.5 -8t-5.5 -41v-383q0 -41 2.5 -70t11.5 -61t24.5 -51.5t43.5 -32.5t67 -13q27 0 56 11q8 3 19.5 10t20.5 12.5t11 5.5q11 0 17 -12t3 -22q-33 -39 -88.5 -67t-126.5 -28q-64 0 -107.5 16.5t-65.5 49t-31 69.5t-9 87v469q0 42 -6 50.5t-37 8.5
h-57q-9 6 -10.5 20t4.5 23q92 28 131 63q49 46 86 121q7 4 22.5 1.5t20.5 -11.5v-92q0 -28 5.5 -33.5t31.5 -5.5h227q18 -14 17 -45t-15 -41zM504 1434q51 0 84 -49.5t33 -118.5q0 -86 -51.5 -147.5t-123.5 -92.5q-18 6 -22.5 22t6.5 25q30 21 48.5 36.5t39.5 46.5t21 61
q0 39 -21 61t-49 27q-47 11 -47 57q0 27 19 49.5t63 22.5z" />
    <glyph glyph-name="Umacron" unicode="&#x16a;" horiz-adv-x="1527" 
d="M1239 602v236q0 356 -39 424q-21 37 -102 43l-51 4q-9 11 -7 27t11 22q117 -6 233 -6q104 0 215 6q11 -7 11.5 -23.5t-7.5 -25.5l-49 -4q-38 -3 -65.5 -16.5t-36.5 -33.5q-29 -68 -29 -417v-232q0 -336 -143 -489q-65 -71 -170.5 -110.5t-221.5 -39.5q-251 0 -382 113
q-82 68 -121 184.5t-39 298.5v484q0 47 -0.5 72.5t-2 56t-4.5 45t-9.5 31.5t-15 23.5t-22 14t-30 10.5t-39.5 5l-51 4q-9 6 -7 25t11 24q153 -6 254 -6q102 0 252 6q9 -5 11 -24t-7 -25l-49 -4q-23 -2 -39.5 -5t-30 -10.5t-22 -14t-15 -23.5t-9.5 -31.5t-4.5 -45t-2 -56
t-0.5 -72.5v-443q0 -128 21.5 -225t68.5 -171t128.5 -112.5t196.5 -38.5q108 0 188.5 41t128 115.5t70.5 171.5t23 217zM1026 1479h-430q-15 20 -15 58t15 58h430q17 -20 17 -58t-17 -58z" />
    <glyph glyph-name="umacron" unicode="&#x16b;" horiz-adv-x="1048" 
d="M326 643v-342q0 -45 4.5 -79t17.5 -64.5t34 -50t54.5 -30.5t79.5 -11q42 0 87.5 16t78.5 45q41 38 41 119v336q0 34 -1 56t-6 39t-8 25.5t-15 17t-19 12t-27 11.5l-26 11q-11 6 -10.5 22.5t12.5 22.5q65 2 136 12.5t103 24.5q16 -3 19 -15q-7 -68 -7 -178v-344
q0 -130 11.5 -176.5t52.5 -46.5q32 0 80 10q10 -8 10 -30.5t-12 -28.5l-27.5 -5.5t-31 -6t-30.5 -6.5t-33.5 -7.5t-31 -7.5t-32.5 -9.5t-29 -10t-29 -11.5t-24 -12q-18 0 -25 14v84q0 29 -18 29q-50 -32 -77 -48t-89 -37.5t-117 -21.5q-131 0 -189.5 64t-58.5 192v342
q0 101 -8.5 127.5t-52.5 46.5l-25 11q-9 7 -7.5 24t11.5 21q122 3 219 37q18 -3 21 -15q-6 -53 -6 -178zM721 1053h-438q-17 22 -17 58t17 58h438q13 -22 13 -58t-13 -58z" />
    <glyph glyph-name="Uring" unicode="&#x16e;" horiz-adv-x="1527" 
d="M1239 602v236q0 356 -39 424q-21 37 -102 43l-51 4q-9 11 -7 27t11 22q117 -6 233 -6q104 0 215 6q11 -7 11.5 -23.5t-7.5 -25.5l-49 -4q-38 -3 -65.5 -16.5t-36.5 -33.5q-29 -68 -29 -417v-232q0 -336 -143 -489q-65 -71 -170.5 -110.5t-221.5 -39.5q-251 0 -382 113
q-82 68 -121 184.5t-39 298.5v484q0 47 -0.5 72.5t-2 56t-4.5 45t-9.5 31.5t-15 23.5t-22 14t-30 10.5t-39.5 5l-51 4q-9 6 -7 25t11 24q153 -6 254 -6q102 0 252 6q9 -5 11 -24t-7 -25l-49 -4q-23 -2 -39.5 -5t-30 -10.5t-22 -14t-15 -23.5t-9.5 -31.5t-4.5 -45t-2 -56
t-0.5 -72.5v-443q0 -128 21.5 -225t68.5 -171t128.5 -112.5t196.5 -38.5q108 0 188.5 41t128 115.5t70.5 171.5t23 217zM825 1778q75 0 124.5 -50t49.5 -116q0 -68 -49.5 -117t-124.5 -49t-124.5 49t-49.5 117q0 66 49.5 116t124.5 50zM733 1612q0 -47 26.5 -78t65.5 -31
q40 0 66.5 31t26.5 78q0 46 -26.5 76t-66.5 30q-39 0 -65.5 -30.5t-26.5 -75.5z" />
    <glyph glyph-name="uring" unicode="&#x16f;" horiz-adv-x="1048" 
d="M326 643v-342q0 -45 4.5 -79t17.5 -64.5t34 -50t54.5 -30.5t79.5 -11q42 0 87.5 16t78.5 45q41 38 41 119v336q0 34 -1 56t-6 39t-8 25.5t-15 17t-19 12t-27 11.5l-26 11q-11 6 -10.5 22.5t12.5 22.5q65 2 136 12.5t103 24.5q16 -3 19 -15q-7 -68 -7 -178v-344
q0 -130 11.5 -176.5t52.5 -46.5q32 0 80 10q10 -8 10 -30.5t-12 -28.5l-27.5 -5.5t-31 -6t-30.5 -6.5t-33.5 -7.5t-31 -7.5t-32.5 -9.5t-29 -10t-29 -11.5t-24 -12q-18 0 -25 14v84q0 29 -18 29q-50 -32 -77 -48t-89 -37.5t-117 -21.5q-131 0 -189.5 64t-58.5 192v342
q0 101 -8.5 127.5t-52.5 46.5l-25 11q-9 7 -7.5 24t11.5 21q122 3 219 37q18 -3 21 -15q-6 -53 -6 -178zM518 1300q75 0 124.5 -49.5t49.5 -115.5q0 -68 -49.5 -117t-124.5 -49t-124.5 49t-49.5 117q0 66 49.5 115.5t124.5 49.5zM426 1135q0 -47 26.5 -78t65.5 -31
q40 0 66 31t26 78q0 46 -26 76t-66 30q-39 0 -65.5 -30.5t-26.5 -75.5z" />
    <glyph glyph-name="Uhungarumlaut" unicode="&#x170;" horiz-adv-x="1527" 
d="M1239 602v236q0 356 -39 424q-21 37 -102 43l-51 4q-9 11 -7 27t11 22q117 -6 233 -6q104 0 215 6q11 -7 11.5 -23.5t-7.5 -25.5l-49 -4q-38 -3 -65.5 -16.5t-36.5 -33.5q-29 -68 -29 -417v-232q0 -336 -143 -489q-65 -71 -170.5 -110.5t-221.5 -39.5q-251 0 -382 113
q-82 68 -121 184.5t-39 298.5v484q0 47 -0.5 72.5t-2 56t-4.5 45t-9.5 31.5t-15 23.5t-22 14t-30 10.5t-39.5 5l-51 4q-9 6 -7 25t11 24q153 -6 254 -6q102 0 252 6q9 -5 11 -24t-7 -25l-49 -4q-23 -2 -39.5 -5t-30 -10.5t-22 -14t-15 -23.5t-9.5 -31.5t-4.5 -45t-2 -56
t-0.5 -72.5v-443q0 -128 21.5 -225t68.5 -171t128.5 -112.5t196.5 -38.5q108 0 188.5 41t128 115.5t70.5 171.5t23 217zM1063 1763q19 0 59 -28q26 -19 34.5 -40.5t-3.5 -31.5q-4 -5 -11 -12.5t-18.5 -18t-17.5 -16.5l-178 -170q-17 3 -30 14t-9 25l115 233q14 27 25.5 36
t33.5 9zM750 1763q22 0 61 -30q42 -36 27 -66q-10 -21 -45 -51l-179 -170q-17 3 -30 14t-9 25l115 233q14 26 26 35.5t34 9.5z" />
    <glyph glyph-name="uhungarumlaut" unicode="&#x171;" horiz-adv-x="1048" 
d="M326 643v-342q0 -45 4.5 -79t17.5 -64.5t34 -50t54.5 -30.5t79.5 -11q42 0 87.5 16t78.5 45q41 38 41 119v336q0 34 -1 56t-6 39t-8 25.5t-15 17t-19 12t-27 11.5l-26 11q-11 6 -10.5 22.5t12.5 22.5q65 2 136 12.5t103 24.5q16 -3 19 -15q-7 -68 -7 -178v-344
q0 -130 11.5 -176.5t52.5 -46.5q32 0 80 10q10 -8 10 -30.5t-12 -28.5l-27.5 -5.5t-31 -6t-30.5 -6.5t-33.5 -7.5t-31 -7.5t-32.5 -9.5t-29 -10t-29 -11.5t-24 -12q-18 0 -25 14v84q0 29 -18 29q-50 -32 -77 -48t-89 -37.5t-117 -21.5q-131 0 -189.5 64t-58.5 192v342
q0 101 -8.5 127.5t-52.5 46.5l-25 11q-9 7 -7.5 24t11.5 21q122 3 219 37q18 -3 21 -15q-6 -53 -6 -178zM561 1227l-188 -275q-12 -2 -23.5 5t-11.5 18l113 334q19 43 34 45q14 4 66 -23q30 -20 33 -41q4 -25 -23 -63zM831 1227l-188 -275q-12 -2 -24 5t-11 18l113 334
q18 41 35 47q13 2 65 -25q30 -13 33 -39q3 -23 -23 -65z" />
    <glyph glyph-name="Uogonek" unicode="&#x172;" horiz-adv-x="1527" 
d="M414 1047v-443q0 -128 21.5 -225t68.5 -171t128.5 -112.5t196.5 -38.5q108 0 188.5 41t128 115.5t70.5 171.5t23 217v236q0 356 -39 424q-21 37 -102 43l-51 4q-9 11 -7 27t11 22q117 -6 233 -6q104 0 215 6q11 -7 11.5 -23.5t-7.5 -25.5l-49 -4q-38 -3 -65.5 -16.5
t-36.5 -33.5q-29 -68 -29 -417v-232q0 -336 -143 -489q-102 -111 -283 -140q-59 -44 -94 -102.5t-35 -110.5q0 -42 22.5 -69t63.5 -27q71 0 111 29q18 -5 18 -31q-34 -46 -90 -70t-107 -24q-73 0 -112 44t-39 97q0 136 166 256q-4 -2 -13 -2q-251 0 -382 113
q-82 68 -121 184.5t-39 298.5v484q0 47 -0.5 72.5t-2 56t-4.5 45t-9.5 31.5t-15 23.5t-22 14t-30 10.5t-39.5 5l-51 4q-9 6 -7 25t11 24q153 -6 254 -6q102 0 252 6q9 -5 11 -24t-7 -25l-49 -4q-23 -2 -39.5 -5t-30 -10.5t-22 -14t-15 -23.5t-9.5 -31.5t-4.5 -45t-2 -56
t-0.5 -72.5z" />
    <glyph glyph-name="uogonek" unicode="&#x173;" horiz-adv-x="1048" 
d="M174 227v342q0 101 -8.5 127.5t-52.5 46.5l-25 11q-9 7 -7.5 24t11.5 21q122 3 219 37q18 -3 21 -15q-6 -53 -6 -178v-342q0 -45 4.5 -79t17.5 -64.5t34 -50t54.5 -30.5t79.5 -11q42 0 87.5 16t78.5 45q41 38 41 119v336q0 34 -1 56t-6 39t-8 25.5t-15 17t-19 12
t-27 11.5l-26 11q-11 6 -10.5 22.5t12.5 22.5q65 2 136 12.5t103 24.5q16 -3 19 -15q-7 -68 -7 -178v-344q0 -130 11.5 -176.5t52.5 -46.5q32 0 80 10q10 -8 10 -30.5t-12 -28.5q-4 0 -6 -2q-66 -66 -101 -137.5t-35 -127.5q0 -43 21.5 -67.5t60.5 -24.5q67 0 107 29
q18 -5 18 -31q-35 -47 -85.5 -70.5t-100.5 -23.5q-75 0 -113.5 41t-38.5 100q0 62 45 131.5t144 165.5q-130 -28 -184 -59q-18 0 -25 14v84q0 29 -18 29q-50 -32 -77 -48t-89 -37.5t-117 -21.5q-131 0 -189.5 64t-58.5 192z" />
    <glyph glyph-name="Ydieresis" unicode="&#x178;" horiz-adv-x="1175" 
d="M688 418v-107q0 -71 2.5 -111t8.5 -72t21 -46t35.5 -21t55.5 -10l78 -6q9 -9 7 -27.5t-11 -23.5q-191 6 -279 6q-104 0 -268 -6q-9 5 -11 23.5t7 27.5l63 6q24 2 39.5 5t29.5 10.5t22 14t15 23.5t9.5 31.5t4.5 45t2.5 56.5t0.5 74v105q0 85 -10.5 126.5t-54.5 127.5
l-242 471q-49 94 -79.5 120.5t-82.5 34.5l-57 11q-9 10 -7.5 27.5t11.5 23.5q99 -6 238 -6q142 0 219 6q13 -4 14.5 -23t-8.5 -28l-27 -4q-51 -7 -68.5 -15.5t-17.5 -21.5t25 -72t39 -86q19 -38 70 -142.5t88 -177t73 -135.5q138 239 193 346q133 247 133 271q0 9 -25 19
t-61 14l-37 4q-11 10 -9.5 27.5t13.5 23.5q111 -6 197 -6q85 0 190 6q12 -7 13.5 -24.5t-9.5 -26.5l-57 -11q-17 -3 -33 -9.5t-32.5 -19t-29 -23t-29 -33t-27 -36.5t-29 -45t-28 -46.5t-31.5 -54t-32 -56.5l-129 -223q-68 -118 -82 -166t-14 -166zM449 1454
q-48 0 -74.5 26.5t-26.5 78.5q-5 45 25 79.5t76 34.5q45 0 74.5 -34t29.5 -76q0 -46 -29 -77.5t-75 -31.5zM829 1454q-47 0 -76 27t-30 78q0 46 30 80t76 34q45 0 72 -33.5t27 -76.5q0 -46 -26.5 -77.5t-72.5 -31.5z" />
    <glyph glyph-name="Zacute" unicode="&#x179;" horiz-adv-x="1312" 
d="M279 297l442 629q31 44 70 99l58.5 82.5t39 57.5t31.5 52q24 43 24 55q0 16 -74 16h-305q-129 0 -199.5 -14.5t-105.5 -52.5q-52 -57 -90 -140q-13 -6 -29 -1.5t-22 16.5q44 128 84 307q6 5 16.5 5t18.5 -5q4 -36 38 -43.5t164 -7.5h541q201 0 236 6q12 -3 12 -19
q-38 -33 -141.5 -169.5t-194.5 -268.5l-338 -487q-203 -291 -203 -318q0 -14 13 -19.5t45 -8.5q66 -5 303 -5q292 0 379 48q80 45 143 188q13 5 30 2t21 -16q-15 -78 -42 -166.5t-50 -124.5q-170 6 -373 6h-526q-88 0 -229 -6q-11 6 -11 24q33 31 105 121t119 158zM958 1593
l-352 -147q-11 3 -17.5 17.5t-2.5 31.5l288 236q41 26 56 26q12 0 29.5 -12t31.5 -33q34 -52 21 -86q-14 -18 -54 -33z" />
    <glyph glyph-name="zacute" unicode="&#x17a;" horiz-adv-x="772" 
d="M463 0h-184q-179 0 -216 -6q-12 6 -12 20q30 36 90.5 128t106.5 173l217 369q22 43 17 52t-36 9h-141q-104 0 -141 -30q-38 -29 -74 -119q-7 -9 -25 -6.5t-22 14.5q3 43 25 124t43 116q12 8 24 0q4 -25 29.5 -31t116.5 -6h290q94 0 125 6q14 -7 11 -20q-64 -88 -152 -234
l-248 -416q-32 -55 -26 -68.5t65 -13.5h70q55 0 88.5 2t80 17t72.5 43q24 26 66 119q10 6 25.5 2.5t19.5 -15.5q-14 -75 -35 -140.5t-41 -94.5q-102 6 -229 6zM614 1200l-256 -266q-11 -2 -22 5t-12 17l176 334q26 49 49 49q25 0 63 -30q35 -28 35 -54q0 -22 -33 -55z" />
    <glyph glyph-name="Zdotaccent" unicode="&#x17b;" horiz-adv-x="1312" 
d="M279 297l442 629q31 44 70 99l58.5 82.5t39 57.5t31.5 52q24 43 24 55q0 16 -74 16h-305q-129 0 -199.5 -14.5t-105.5 -52.5q-52 -57 -90 -140q-13 -6 -29 -1.5t-22 16.5q44 128 84 307q6 5 16.5 5t18.5 -5q4 -36 38 -43.5t164 -7.5h541q201 0 236 6q12 -3 12 -19
q-38 -33 -141.5 -169.5t-194.5 -268.5l-338 -487q-203 -291 -203 -318q0 -14 13 -19.5t45 -8.5q66 -5 303 -5q292 0 379 48q80 45 143 188q13 5 30 2t21 -16q-15 -78 -42 -166.5t-50 -124.5q-170 6 -373 6h-526q-88 0 -229 -6q-11 6 -11 24q33 31 105 121t119 158zM680 1448
q-49 0 -79.5 28.5t-31.5 79.5q-2 46 30 78.5t81 32.5q46 0 77 -32t31 -72q0 -51 -30.5 -83t-77.5 -32z" />
    <glyph glyph-name="zdotaccent" unicode="&#x17c;" horiz-adv-x="772" 
d="M463 0h-184q-179 0 -216 -6q-12 6 -12 20q30 36 90.5 128t106.5 173l217 369q22 43 17 52t-36 9h-141q-104 0 -141 -30q-38 -29 -74 -119q-7 -9 -25 -6.5t-22 14.5q3 43 25 124t43 116q12 8 24 0q4 -25 29.5 -31t116.5 -6h290q94 0 125 6q14 -7 11 -20q-64 -88 -152 -234
l-248 -416q-32 -55 -26 -68.5t65 -13.5h70q55 0 88.5 2t80 17t72.5 43q24 26 66 119q10 6 25.5 2.5t19.5 -15.5q-14 -75 -35 -140.5t-41 -94.5q-102 6 -229 6zM408 1237q44 0 71 -31.5t27 -75.5q0 -51 -29.5 -76.5t-75.5 -25.5t-74 29t-28 71q0 50 31 79.5t78 29.5z" />
    <glyph glyph-name="Zcaron" unicode="&#x17d;" horiz-adv-x="1312" 
d="M279 297l442 629q31 44 70 99l58.5 82.5t39 57.5t31.5 52q24 43 24 55q0 16 -74 16h-305q-129 0 -199.5 -14.5t-105.5 -52.5q-52 -57 -90 -140q-13 -6 -29 -1.5t-22 16.5q44 128 84 307q6 5 16.5 5t18.5 -5q4 -36 38 -43.5t164 -7.5h541q201 0 236 6q12 -3 12 -19
q-38 -33 -141.5 -169.5t-194.5 -268.5l-338 -487q-203 -291 -203 -318q0 -14 13 -19.5t45 -8.5q66 -5 303 -5q292 0 379 48q80 45 143 188q13 5 30 2t21 -16q-15 -78 -42 -166.5t-50 -124.5q-170 6 -373 6h-526q-88 0 -229 -6q-11 6 -11 24q33 31 105 121t119 158zM657 1460
l-254 232q0 14 9.5 27.5t21.5 13.5l234 -127q21 -11 31 -11.5t34 11.5l236 127q10 -1 16 -13.5t6 -27.5l-250 -232q-40 -38 -84 0z" />
    <glyph glyph-name="zcaron" unicode="&#x17e;" horiz-adv-x="772" 
d="M463 0h-184q-179 0 -216 -6q-12 6 -12 20q30 36 90.5 128t106.5 173l217 369q22 43 17 52t-36 9h-141q-104 0 -141 -30q-38 -29 -74 -119q-7 -9 -25 -6.5t-22 14.5q3 43 25 124t43 116q12 8 24 0q4 -25 29.5 -31t116.5 -6h290q94 0 125 6q14 -7 11 -20q-64 -88 -152 -234
l-248 -416q-32 -55 -26 -68.5t65 -13.5h70q55 0 88.5 2t80 17t72.5 43q24 26 66 119q10 6 25.5 2.5t19.5 -15.5q-14 -75 -35 -140.5t-41 -94.5q-102 6 -229 6zM221 1352l154 -191q15 -20 27.5 -19.5t27.5 19.5l154 191q11 2 23.5 -5.5t13.5 -21.5l-185 -362
q-15 -30 -33.5 -30t-33.5 30l-189 362q1 13 15.5 20t25.5 7z" />
    <glyph glyph-name="florin" unicode="&#x192;" horiz-adv-x="1024" 
d="M240 874h188q38 186 84 283q22 45 54 89.5t75 86.5t98.5 68t112.5 26q70 0 107.5 -32.5t37.5 -71.5t-27 -66.5t-46 -27.5q-26 0 -50 37q-48 75 -104 75q-32 0 -60 -37.5t-50.5 -107t-39 -145.5t-32.5 -177h231q13 -9 13.5 -32.5t-13.5 -34.5h-248q-38 -208 -57 -322
q-34 -206 -72.5 -343t-74.5 -202.5t-82 -107.5q-90 -82 -195 -82q-63 0 -98 37.5t-35 93.5q0 29 12 47.5t23 18.5q24 0 51 -31q33 -29 70 -50.5t63 -21.5q22 0 41 19.5t42 87.5t42 186q8 49 48.5 284t64.5 386h-174q-10 7 -10 32.5t10 34.5z" />
    <glyph glyph-name="Scommaaccent" unicode="&#x218;" horiz-adv-x="1001" 
d="M895 346q0 -170 -119 -274.5t-317 -104.5q-191 0 -320 76q-18 33 -35 123t-20 164q8 11 25.5 13t23.5 -7q11 -38 25.5 -72t43.5 -79.5t65 -77t93 -54t125 -22.5q123 0 189.5 68t66.5 167q0 39 -5.5 70.5t-22 69.5t-51.5 75.5t-89 71.5l-194 127q-221 147 -221 352
q0 152 112 252t305 100q93 0 191 -26q41 -12 72 -12q14 -38 25 -112.5t11 -137.5q-6 -9 -24.5 -12t-26.5 6q-10 35 -20.5 62t-32.5 61t-50 55.5t-73 37t-102 15.5q-71 0 -122 -21.5t-76 -57.5t-35.5 -72t-10.5 -76q0 -80 51.5 -144t122.5 -108l164 -103q256 -159 256 -393z
M475 -119q55 0 102.5 -45.5t47.5 -124.5q0 -101 -67 -166t-171 -96q-13 6 -20.5 32t0.5 32q52 16 96.5 53t44.5 90q0 15 -6 28.5t-14.5 22.5t-21 17.5t-21 13t-19.5 9t-12 5.5q-35 17 -35 51q0 31 26 54.5t70 23.5z" />
    <glyph glyph-name="scommaaccent" unicode="&#x219;" horiz-adv-x="661" 
d="M381 836q60 0 112.5 -12t67.5 -25q33 -83 33 -166q-6 -11 -23.5 -13t-25.5 7q-27 70 -73 109.5t-107 39.5q-60 0 -96 -34.5t-36 -90.5q0 -24 11 -47t22 -36.5t40 -34t39.5 -26.5l45.5 -26q48 -27 80 -49.5t64.5 -56t48.5 -76t16 -94.5q0 -111 -86.5 -172.5t-208.5 -61.5
q-142 0 -219 62q-12 30 -20 93.5t-5 113.5q8 9 24 10t24 -8q65 -211 217 -211q59 0 98 34t39 97q0 34 -13 62.5t-39 52t-48 38.5t-58 35q-100 57 -151.5 115t-51.5 137q0 109 79 171.5t200 62.5zM309 -119q52 0 99 -47t47 -133q0 -94 -66 -157.5t-168 -94.5q-11 6 -14 32
t4 32q46 15 83.5 52t37.5 91q0 15 -5 28.5t-11.5 22.5t-17.5 18t-17 12.5t-17 8.5l-10 6q-31 16 -31 51q0 31 23.5 54.5t62.5 23.5z" />
    <glyph glyph-name="circumflex" unicode="&#x2c6;" 
d="M545 952l-150 189q-19 23 -27.5 23t-27.5 -23l-152 -189q-9 -3 -24.5 3.5t-16.5 15.5l185 362q36 66 71 0l187 -362q-1 -9 -19 -15.5t-26 -3.5z" />
    <glyph glyph-name="caron" unicode="&#x2c7;" 
d="M190 1372l154 -190q15 -20 27.5 -19.5t27.5 19.5l154 190q11 2 23.5 -5t13.5 -21l-184 -363q-15 -30 -34 -30t-34 30l-188 363q1 13 15 19.5t25 6.5z" />
    <glyph glyph-name="breve" unicode="&#x2d8;" 
d="M369 1026q-108 0 -164 67t-49 201q7 6 22 6t23 -6q17 -76 65 -113.5t103 -37.5t103 37.5t67 113.5q6 6 21 6t24 -6q6 -134 -50.5 -201t-164.5 -67z" />
    <glyph glyph-name="dotaccent" unicode="&#x2d9;" 
d="M377 1253q44 0 71 -31t27 -75q0 -51 -29 -77t-75 -26t-74.5 29.5t-28.5 71.5q0 50 31 79t78 29z" />
    <glyph glyph-name="ring" unicode="&#x2da;" 
d="M369 1313q75 0 124.5 -49.5t49.5 -116.5q0 -68 -49.5 -117t-124.5 -49t-124.5 49t-49.5 117q0 67 49.5 116.5t124.5 49.5zM276 1147q0 -47 27 -78t66 -31q40 0 66 31t26 78q0 46 -26 76t-66 30q-39 0 -66 -30.5t-27 -75.5z" />
    <glyph glyph-name="ogonek" unicode="&#x2db;" 
d="M348 10h47q-37 -87 -37 -182q0 -72 42 -112t102 -40q53 0 86 17q16 -10 16 -35q-70 -86 -203 -86q-81 0 -128.5 47.5t-47.5 126.5q0 106 123 264z" />
    <glyph glyph-name="tilde" unicode="&#x2dc;" 
d="M311 1194h111q65 0 93.5 13.5t64.5 66.5q25 12 34 -12q-9 -39 -31.5 -82.5t-45.5 -67.5q-22 -20 -44 -26.5t-57 -6.5h-108q-67 0 -103 -24t-67 -82q-7 -6 -19 -3.5t-16 11.5q6 30 30 87t46 79q44 47 112 47z" />
    <glyph glyph-name="hungarumlaut" unicode="&#x2dd;" 
d="M418 1237l-189 -274q-12 -2 -23 4.5t-11 17.5l112 334q19 43 35 45q14 4 66 -23q29 -20 32 -41q4 -26 -22 -63zM688 1237l-188 -274q-12 -2 -24 4.5t-11 17.5l113 334q18 42 34 47q14 2 66 -25q30 -13 33 -38q3 -23 -23 -66z" />
    <glyph glyph-name="Delta" unicode="&#x394;" horiz-adv-x="1302" 
d="M1227 0h-1147q-12 0 -16 12t-1.5 29t7 32t8.5 25q35 82 110 250t115 258l248 555q47 104 39 146q50 16 106 77q20 0 25 -18q16 -41 48 -134t52 -142l408 -996q13 -32 13 -63t-15 -31zM279 96h694q48 0 60 9.5t3 33.5l-342 867q-36 97 -51 129h-14q-2 -3 -54 -121
l-364 -864q-14 -35 -2 -44.5t70 -9.5z" />
    <glyph glyph-name="Delta" unicode="&#x2206;" horiz-adv-x="1302" 
d="M1227 0h-1147q-12 0 -16 12t-1.5 29t7 32t8.5 25q35 82 110 250t115 258l248 555q47 104 39 146q50 16 106 77q20 0 25 -18q16 -41 48 -134t52 -142l408 -996q13 -32 13 -63t-15 -31zM279 96h694q48 0 60 9.5t3 33.5l-342 867q-36 97 -51 129h-14q-2 -3 -54 -121
l-364 -864q-14 -35 -2 -44.5t70 -9.5z" />
    <glyph glyph-name="Omega" unicode="&#x3a9;" horiz-adv-x="1576" 
d="M788 1384q134 0 254 -40.5t213 -116t146.5 -193.5t50.5 -262q-1 -46 -8 -89.5t-16 -79t-28.5 -73.5t-33.5 -64.5t-43 -61.5t-46 -55t-53 -54t-53.5 -50t-58.5 -52t-57 -50h196q102 0 150 35.5t90 128.5q7 15 23 15t20 -15q-13 -41 -23.5 -86.5t-24.5 -121.5t-22 -113
q-15 1 -45.5 5t-59.5 6.5t-59 2.5h-399v41q7 9 22 26q143 169 205 269q138 221 138 446q0 237 -125 388t-348 151q-150 0 -260.5 -77.5t-165.5 -204.5t-56 -285q-1 -85 21.5 -170t54 -151.5t85.5 -143.5t96.5 -127t107.5 -121v-41h-400q-30 0 -59 -2.5t-59 -6.5t-45 -5
q-8 37 -22 113t-24.5 121.5t-23.5 86.5q5 15 20 15t23 -15q42 -93 90 -128.5t150 -35.5h196q-36 28 -48.5 37.5t-53 43.5t-60 54t-57 59t-57.5 69t-47 74t-40.5 84.5t-23.5 90t-10 99.5q1 146 56 267t146.5 199t210.5 121t250 43z" />
    <glyph glyph-name="Omega" unicode="&#x2126;" horiz-adv-x="1576" 
d="M788 1384q134 0 254 -40.5t213 -116t146.5 -193.5t50.5 -262q-1 -46 -8 -89.5t-16 -79t-28.5 -73.5t-33.5 -64.5t-43 -61.5t-46 -55t-53 -54t-53.5 -50t-58.5 -52t-57 -50h196q102 0 150 35.5t90 128.5q7 15 23 15t20 -15q-13 -41 -23.5 -86.5t-24.5 -121.5t-22 -113
q-15 1 -45.5 5t-59.5 6.5t-59 2.5h-399v41q7 9 22 26q143 169 205 269q138 221 138 446q0 237 -125 388t-348 151q-150 0 -260.5 -77.5t-165.5 -204.5t-56 -285q-1 -85 21.5 -170t54 -151.5t85.5 -143.5t96.5 -127t107.5 -121v-41h-400q-30 0 -59 -2.5t-59 -6.5t-45 -5
q-8 37 -22 113t-24.5 121.5t-23.5 86.5q5 15 20 15t23 -15q42 -93 90 -128.5t150 -35.5h196q-36 28 -48.5 37.5t-53 43.5t-60 54t-57 59t-57.5 69t-47 74t-40.5 84.5t-23.5 90t-10 99.5q1 146 56 267t146.5 199t210.5 121t250 43z" />
    <glyph glyph-name="pi" unicode="&#x3c0;" horiz-adv-x="1024" 
d="M672 694h-258q-12 -97 -24 -177t-23.5 -139.5t-18 -92.5t-17 -76t-12.5 -51q-47 -187 -135 -187q-32 0 -52 18.5t-19 49.5q0 11 7 23t24.5 32.5t23.5 28.5q116 141 164 571q-100 0 -158 -32t-100 -123q-3 -11 -10 -16.5t-13 1t-6 23.5q0 52 22 109t64 92q40 33 86.5 46
t114.5 13h413q107 0 151.5 3.5t66.5 16.5q9 5 12.5 0t-0.5 -20q-16 -52 -41 -88q-13 -19 -55.5 -25t-137.5 -4q-20 -63 -34.5 -171t-14.5 -226q0 -99 25 -147t82 -48q45 0 83 26t79 81q7 10 16 1q7 -8 2 -22q-39 -105 -108.5 -159t-147.5 -54q-41 0 -72 18t-47.5 44.5
t-26 62t-11.5 65.5t-1 60q2 58 20 145.5t35.5 150.5t51.5 177z" />
    <glyph glyph-name="figuredash" unicode="&#x2012;" horiz-adv-x="1024" 
d="M66 696h892v-100h-892v100z" />
    <glyph glyph-name="endash" unicode="&#x2013;" horiz-adv-x="1024" 
d="M0 471h1024v-100h-1024v100z" />
    <glyph glyph-name="emdash" unicode="&#x2014;" horiz-adv-x="2048" 
d="M0 471h2048v-100h-2048v100z" />
    <glyph glyph-name="quoteleft" unicode="&#x2018;" horiz-adv-x="481" 
d="M270 969q-63 0 -110 58.5t-47 137.5q0 101 68 174.5t171 104.5q12 -6 17 -19t-2 -24q-156 -72 -156 -176q0 -53 33 -83t69 -32q24 -2 40 -16t16 -41q0 -31 -23 -57.5t-76 -26.5z" />
    <glyph glyph-name="quoteright" unicode="&#x2019;" horiz-adv-x="481" 
d="M211 1434q63 0 110.5 -59t47.5 -138q0 -101 -68.5 -174.5t-171.5 -104.5q-12 6 -16.5 19t2.5 24q155 71 155 177q0 53 -33 82.5t-69 31.5q-24 2 -39.5 16.5t-15.5 41.5q0 31 22.5 57.5t75.5 26.5z" />
    <glyph glyph-name="quotesinglbase" unicode="&#x201a;" horiz-adv-x="440" 
d="M190 205q63 0 110.5 -59t47.5 -138q-1 -101 -68.5 -174t-170.5 -104q-12 6 -17 19t2 24q156 72 156 176q0 53 -33.5 82.5t-69.5 31.5q-24 2 -39.5 16.5t-15.5 41.5q0 31 22.5 57.5t75.5 26.5z" />
    <glyph glyph-name="quotedblleft" unicode="&#x201c;" horiz-adv-x="827" 
d="M616 969q-63 0 -110 58.5t-47 137.5q0 101 68 174.5t171 104.5q12 -6 17 -19t-2 -24q-156 -72 -156 -176q0 -53 33 -83t69 -32q24 -2 40 -16t16 -41q0 -31 -23 -57.5t-76 -26.5zM270 969q-63 0 -110 58.5t-47 137.5q0 101 68 174.5t171 104.5q12 -6 17 -19t-2 -24
q-156 -72 -156 -176q0 -53 33 -83t69 -32q24 -2 40 -16t16 -41q0 -31 -23 -57.5t-76 -26.5z" />
    <glyph glyph-name="quotedblright" unicode="&#x201d;" horiz-adv-x="827" 
d="M557 1434q63 0 110.5 -59t47.5 -138q0 -101 -68.5 -174.5t-171.5 -104.5q-12 6 -16.5 19t2.5 24q155 71 155 177q0 53 -33 82.5t-69 31.5q-24 2 -39.5 16.5t-15.5 41.5q0 31 22.5 57.5t75.5 26.5zM211 1434q63 0 110.5 -59t47.5 -138q0 -101 -68.5 -174.5t-171.5 -104.5
q-12 6 -16.5 19t2.5 24q155 71 155 177q0 53 -33 82.5t-69 31.5q-24 2 -39.5 16.5t-15.5 41.5q0 31 22.5 57.5t75.5 26.5z" />
    <glyph glyph-name="quotedblbase" unicode="&#x201e;" horiz-adv-x="786" 
d="M537 205q63 0 110 -59t47 -138q-1 -101 -68.5 -174t-170.5 -104q-12 6 -17 19t2 24q156 72 156 176q0 53 -33 82.5t-69 31.5q-24 2 -40 16.5t-16 41.5q0 31 23 57.5t76 26.5zM190 205q63 0 110.5 -59t47.5 -138q-1 -101 -68.5 -174t-170.5 -104q-12 6 -17 19t2 24
q156 72 156 176q0 53 -33.5 82.5t-69.5 31.5q-24 2 -39.5 16.5t-15.5 41.5q0 31 22.5 57.5t75.5 26.5z" />
    <glyph glyph-name="dagger" unicode="&#x2020;" horiz-adv-x="983" 
d="M524 -260h-65v280q0 164 -18.5 281.5t-53.5 235.5q45 56 59.5 133t14.5 225q-55 0 -107 -16t-91.5 -32t-63.5 -16q-47 0 -72 25.5t-25 65.5q0 39 25 63.5t72 24.5q24 0 63.5 -15.5t91.5 -31t107 -15.5q0 99 -16 169.5t-32 109t-16 59.5q0 37 23.5 67.5t71.5 30.5
t71 -30.5t23 -67.5q0 -21 -16 -59.5t-32 -109t-16 -169.5q72 0 156 31t108 31q46 0 70.5 -25t24.5 -63q0 -40 -24.5 -65.5t-70.5 -25.5q-24 0 -108 32t-156 32q0 -148 14.5 -225t59.5 -133q-35 -118 -53.5 -235.5t-18.5 -281.5v-280z" />
    <glyph glyph-name="daggerdbl" unicode="&#x2021;" horiz-adv-x="983" 
d="M492 1384q46 0 69 -29.5t23 -64.5q0 -19 -9.5 -47t-21.5 -58t-21.5 -91t-9.5 -138q63 0 156 29q10 4 36.5 14t42.5 14.5t31 4.5q45 0 68 -24.5t23 -63.5t-23 -62.5t-68 -23.5q-27 0 -111 29.5t-155 29.5q0 -130 14.5 -200t59.5 -115q-45 -41 -59.5 -114.5t-14.5 -223.5
q63 0 156 29q11 4 29.5 11t29.5 10.5t25 7t26 3.5q45 0 68 -24.5t23 -63.5t-23 -62.5t-68 -23.5q-27 0 -111 30t-155 30q0 -97 15.5 -172t31 -118.5t15.5 -64.5q0 -36 -23 -66t-69 -30t-69.5 30.5t-23.5 65.5q0 21 15.5 64.5t31 118.5t15.5 172q-70 0 -154 -30.5t-112 -29.5
q-45 0 -68 23.5t-23 62.5t23 63.5t68 24.5q12 0 26 -3.5t25 -7t29.5 -10.5t29.5 -11q93 -29 156 -29q0 150 -14.5 223.5t-59.5 114.5q45 45 59.5 115t14.5 200q-70 0 -154 -30t-112 -29q-45 0 -68 23.5t-23 62.5t23 63.5t68 24.5q15 0 31 -4.5t42.5 -14.5t36.5 -14
q93 -29 156 -29q0 77 -9.5 138t-21.5 91t-21.5 58t-9.5 47q0 35 23.5 64.5t69.5 29.5z" />
    <glyph glyph-name="bullet" unicode="&#x2022;" horiz-adv-x="794" 
d="M397 973q119 0 202 -82.5t83 -202.5q0 -119 -83 -200.5t-202 -81.5t-201.5 81.5t-82.5 200.5q0 120 82.5 202.5t201.5 82.5z" />
    <glyph glyph-name="onedotenleader" unicode="&#x2024;" horiz-adv-x="1024" 
d="M512 205q51 0 83 -35t32 -86q0 -50 -31.5 -81.5t-83.5 -31.5q-46 0 -80.5 31.5t-34.5 81.5q0 52 32.5 86.5t82.5 34.5z" />
    <glyph glyph-name="twodotenleader" unicode="&#x2025;" horiz-adv-x="1024" 
d="M256 205q51 0 83 -35t32 -86q0 -50 -31.5 -81.5t-83.5 -31.5q-46 0 -80.5 31.5t-34.5 81.5q0 52 32.5 86.5t82.5 34.5zM768 205q51 0 83 -35t32 -86q0 -50 -31.5 -81.5t-83.5 -31.5q-46 0 -80.5 31.5t-34.5 81.5q0 52 32.5 86.5t82.5 34.5z" />
    <glyph glyph-name="ellipsis" unicode="&#x2026;" horiz-adv-x="2048" 
d="M1024 -29q-46 0 -80.5 31.5t-34.5 81.5q0 52 32.5 86.5t82.5 34.5q51 0 83 -35t32 -86q0 -50 -31.5 -81.5t-83.5 -31.5zM1706 -29q-46 0 -80.5 31.5t-34.5 81.5q0 52 32.5 86.5t82.5 34.5q51 0 83 -35t32 -86q0 -50 -31.5 -81.5t-83.5 -31.5zM342 -29q-46 0 -80.5 31.5
t-34.5 81.5q0 52 32.5 86.5t82.5 34.5q51 0 83 -35t32 -86q0 -50 -31.5 -81.5t-83.5 -31.5z" />
    <glyph glyph-name="perthousand" unicode="&#x2030;" horiz-adv-x="2342" 
d="M1554 348q0 -48 -10.5 -98.5t-34.5 -100.5t-58 -89.5t-85 -64t-111 -24.5t-111 24.5t-85 64t-58 89.5t-34.5 100.5t-10.5 98.5q0 62 18 126t52.5 122t94 94.5t134.5 36.5t134.5 -36.5t94 -94.5t52.5 -122t18 -126zM1413 348q0 49 -5.5 95.5t-20 102t-48 90t-82.5 34.5
t-83 -34t-49 -89t-21 -102.5t-6 -96.5q0 -37 3 -73.5t13 -83t26.5 -80.5t46.5 -58t70 -24q49 0 82.5 34t48 89.5t20 101.5t5.5 94zM690 932q0 -48 -10.5 -98.5t-34.5 -100.5t-58 -89.5t-85 -64t-111 -24.5t-111 24.5t-85 64t-58 89.5t-34.5 100.5t-10.5 98.5q0 62 18 126
t52.5 122t94 94.5t134.5 36.5t134.5 -36.5t94 -94.5t52.5 -122t18 -126zM549 932q0 48 -5.5 94.5t-20 102.5t-48 90t-82.5 34t-83 -34t-49.5 -88.5t-21.5 -102t-6 -96.5q0 -48 6 -95.5t21.5 -102t49.5 -88.5t83 -34q40 0 69.5 24.5t45.5 59t26 81.5t12.5 83t2.5 72z
M2251 348q0 -48 -10.5 -98.5t-34.5 -100.5t-58 -89.5t-85 -64t-111 -24.5t-111 24.5t-85 64t-58 89.5t-34.5 100.5t-10.5 98.5q0 62 18 126t52.5 122t94 94.5t134.5 36.5t134.5 -36.5t94 -94.5t52.5 -122t18 -126zM2109 348q0 37 -2.5 73t-12 83.5t-25.5 82t-45.5 59
t-69.5 24.5q-49 0 -83 -34t-49.5 -89t-21.5 -102.5t-6 -96.5q0 -48 6 -95t21.5 -102t49.5 -88.5t83 -33.5q40 0 69.5 24t45.5 58.5t25.5 81.5t12 82.5t2.5 72.5zM1262 1300l-834 -1382q-25 0 -43 12.5t-18 32.5l827 1372q16 2 35.5 -7.5t32.5 -27.5z" />
    <glyph glyph-name="guilsinglleft" unicode="&#x2039;" horiz-adv-x="477" 
d="M385 733l-143 -287q-11 -24 0 -49l143 -291q-9 -20 -35 -26q-23 29 -74.5 96t-91 117t-78.5 96q-26 34 0 64q46 55 244 307q26 -4 35 -27z" />
    <glyph glyph-name="guilsinglright" unicode="&#x203a;" horiz-adv-x="477" 
d="M236 446l-144 287q9 23 35 27q198 -252 244 -307q26 -30 0 -64q-39 -46 -78.5 -96t-91 -117t-74.5 -96q-26 6 -35 26l144 291q11 25 0 49z" />
    <glyph glyph-name="fraction" unicode="&#x2044;" horiz-adv-x="204" 
d="M-375 -29q599 910 893 1368q44 0 64 -47q-455 -685 -901 -1374q-25 0 -39.5 14.5t-16.5 38.5z" />
    <glyph glyph-name="fraction" unicode="&#x2215;" horiz-adv-x="204" 
d="M-375 -29q599 910 893 1368q44 0 64 -47q-455 -685 -901 -1374q-25 0 -39.5 14.5t-16.5 38.5z" />
    <glyph glyph-name="zerosuperior" unicode="&#x2070;" 
d="M371 1450q76 0 136 -37t95.5 -97.5t53.5 -131t18 -144.5q0 -61 -11 -119t-35 -111t-59 -92.5t-86 -63t-112 -23.5q-77 0 -137 35.5t-96 95t-54 130.5t-18 148q0 74 18.5 144.5t54 131t96 97.5t136.5 37zM371 1397q-31 0 -55.5 -15t-40 -37.5t-27 -57.5t-17 -64.5
t-8.5 -70t-3.5 -63t-0.5 -53.5q0 -40 2 -77.5t11 -90.5t24.5 -91t45 -65.5t69.5 -27.5q39 0 68.5 27.5t44.5 65.5t23.5 91.5t10.5 90t2 77.5q0 50 -5.5 102t-19.5 115.5t-46 103.5t-78 40z" />
    <glyph glyph-name="foursuperior" unicode="&#x2074;" 
d="M391 883h-317q-8 0 -13.5 5.5t-5.5 14.5q0 17 19 41l436 561q19 25 43 25q45 0 45 -10q0 -5 -4 -13l-422 -540q-10 -19 -3.5 -22t40.5 -3h184q25 0 31 5.5t6 27.5v223q0 18 12 25q40 22 97 22q16 0 19 -8t3 -31v-235q0 -19 5.5 -24t25.5 -5h76q12 -8 12 -29t-12 -30h-68
q-27 0 -33 -5.5t-6 -27.5v-29q0 -90 10 -108.5t70 -24.5l37 -4q6 -9 5.5 -24t-9.5 -19q-86 4 -178 4q-129 0 -183 -4q-9 4 -10.5 19t6.5 24l37 4q61 7 72.5 27t11.5 106v25q0 24 -6 30.5t-33 6.5z" />
    </font>
</defs>
</svg>
